  0
SECTION
  2
HEADER
  9
$ACADVER
  1
AC1015
  9
$ACADMAINTVER
 70
     6
  9
$DWGCODEPAGE
  3
ANSI_1252
  9
$INSBASE
 10
0.0
 20
0.0
 30
0.0
  9
$EXTMIN
 10
0.0
 20
0.0
 30
0.0
  9
$EXTMAX
 10
297.0
 20
210.0
 30
0.0
  9
$LIMMIN
 10
0.0
 20
0.0
  9
$LIMMAX
 10
148.5
 20
105.0
  9
$ORTHOMODE
 70
     0
  9
$REGENMODE
 70
     1
  9
$FILLMODE
 70
     1
  9
$QTEXTMODE
 70
     0
  9
$MIRRTEXT
 70
     1
  9
$LTSCALE
 40
1.0
  9
$ATTMODE
 70
     1
  9
$TEXTSIZE
 40
1.7638888889
  9
$TRACEWID
 40
1.0
  9
$TEXTSTYLE
  7
Standard
  9
$CLAYER
  8
0
  9
$CELTYPE
  6
ByLayer
  9
$CECOLOR
 62
   256
  9
$CELTSCALE
 40
1.0
  9
$DISPSILH
 70
     0
  9
$DIMSCALE
 40
1.0
  9
$DIMASZ
 40
1.5
  9
$DIMEXO
 40
1.5
  9
$DIMDLI
 40
3.75
  9
$DIMRND
 40
0.0
  9
$DIMDLE
 40
0.0
  9
$DIMEXE
 40
0.5
  9
$DIMTP
 40
0.0
  9
$DIMTM
 40
0.0
  9
$DIMTXT
 40
1.7638888889
  9
$DIMCEN
 40
2.5
  9
$DIMTSZ
 40
0.0
  9
$DIMTOL
 70
     0
  9
$DIMLIM
 70
     0
  9
$DIMTIH
 70
     1
  9
$DIMTOH
 70
     1
  9
$DIMSE1
 70
     0
  9
$DIMSE2
 70
     0
  9
$DIMTAD
 70
     1
  9
$DIMZIN
 70
     1
  9
$DIMBLK
  1

  9
$DIMASO
 70
     1
  9
$DIMSHO
 70
     1
  9
$DIMPOST
  1

  9
$DIMAPOST
  1

  9
$DIMALT
 70
     0
  9
$DIMALTD
 70
     3
  9
$DIMALTF
 40
0.0393700787
  9
$DIMLFAC
 40
1.0
  9
$DIMTOFL
 70
     1
  9
$DIMTVP
 40
0.0
  9
$DIMTIX
 70
     0
  9
$DIMSOXD
 70
     0
  9
$DIMSAH
 70
     0
  9
$DIMBLK1
  1

  9
$DIMBLK2
  1

  9
$DIMSTYLE
  2
ISO-25
  9
$DIMCLRD
 70
     0
  9
$DIMCLRE
 70
     0
  9
$DIMCLRT
 70
     0
  9
$DIMTFAC
 40
1.0
  9
$DIMGAP
 40
0.762
  9
$DIMJUST
 70
     0
  9
$DIMSD1
 70
     0
  9
$DIMSD2
 70
     0
  9
$DIMTOLJ
 70
     0
  9
$DIMTZIN
 70
     1
  9
$DIMALTZ
 70
     0
  9
$DIMALTTZ
 70
     0
  9
$DIMUPT
 70
     0
  9
$DIMDEC
 70
     1
  9
$DIMTDEC
 70
     2
  9
$DIMALTU
 70
     2
  9
$DIMALTTD
 70
     3
  9
$DIMTXSTY
  7
Standard
  9
$DIMAUNIT
 70
     0
  9
$DIMADEC
 70
     1
  9
$DIMALTRND
 40
0.0
  9
$DIMAZIN
 70
     0
  9
$DIMDSEP
 70
    44
  9
$DIMATFIT
 70
     3
  9
$DIMFRAC
 70
     0
  9
$DIMLDRBLK
  1

  9
$DIMLUNIT
 70
     2
  9
$DIMLWD
 70
    -2
  9
$DIMLWE
 70
    -2
  9
$DIMTMOVE
 70
     0
  9
$LUNITS
 70
     2
  9
$LUPREC
 70
     1
  9
$SKETCHINC
 40
1.0
  9
$FILLETRAD
 40
10.0
  9
$AUNITS
 70
     0
  9
$AUPREC
 70
     1
  9
$MENU
  1
.
  9
$ELEVATION
 40
0.0
  9
$PELEVATION
 40
0.0
  9
$THICKNESS
 40
0.0
  9
$LIMCHECK
 70
     0
  9
$CHAMFERA
 40
0.0
  9
$CHAMFERB
 40
0.0
  9
$CHAMFERC
 40
0.0
  9
$CHAMFERD
 40
0.0
  9
$SKPOLY
 70
     0
  9
$TDCREATE
 40
2456683.437318761
  9
$TDUCREATE
 40
2456683.020652095
  9
$TDUPDATE
 40
2456683.437321319
  9
$TDUUPDATE
 40
2456683.020654653
  9
$TDINDWG
 40
0.0000000116
  9
$TDUSRTIMER
 40
0.0000000116
  9
$USRTIMER
 70
     1
  9
$ANGBASE
 50
0.0
  9
$ANGDIR
 70
     0
  9
$PDMODE
 70
     0
  9
$PDSIZE
 40
-1.0
  9
$PLINEWID
 40
0.0
  9
$SPLFRAME
 70
     0
  9
$SPLINETYPE
 70
     6
  9
$SPLINESEGS
 70
     8
  9
$HANDSEED
  5
186
  9
$SURFTAB1
 70
     6
  9
$SURFTAB2
 70
     6
  9
$SURFTYPE
 70
     6
  9
$SURFU
 70
     6
  9
$SURFV
 70
     6
  9
$UCSBASE
  2

  9
$UCSNAME
  2

  9
$UCSORG
 10
0.0
 20
0.0
 30
0.0
  9
$UCSXDIR
 10
1.0
 20
0.0
 30
0.0
  9
$UCSYDIR
 10
0.0
 20
1.0
 30
0.0
  9
$UCSORTHOREF
  2

  9
$UCSORTHOVIEW
 70
     0
  9
$UCSORGTOP
 10
0.0
 20
0.0
 30
0.0
  9
$UCSORGBOTTOM
 10
0.0
 20
0.0
 30
0.0
  9
$UCSORGLEFT
 10
0.0
 20
0.0
 30
0.0
  9
$UCSORGRIGHT
 10
0.0
 20
0.0
 30
0.0
  9
$UCSORGFRONT
 10
0.0
 20
0.0
 30
0.0
  9
$UCSORGBACK
 10
0.0
 20
0.0
 30
0.0
  9
$PUCSBASE
  2

  9
$PUCSNAME
  2

  9
$PUCSORG
 10
0.0
 20
0.0
 30
0.0
  9
$PUCSXDIR
 10
1.0
 20
0.0
 30
0.0
  9
$PUCSYDIR
 10
0.0
 20
1.0
 30
0.0
  9
$PUCSORTHOREF
  2

  9
$PUCSORTHOVIEW
 70
     0
  9
$PUCSORGTOP
 10
0.0
 20
0.0
 30
0.0
  9
$PUCSORGBOTTOM
 10
0.0
 20
0.0
 30
0.0
  9
$PUCSORGLEFT
 10
0.0
 20
0.0
 30
0.0
  9
$PUCSORGRIGHT
 10
0.0
 20
0.0
 30
0.0
  9
$PUCSORGFRONT
 10
0.0
 20
0.0
 30
0.0
  9
$PUCSORGBACK
 10
0.0
 20
0.0
 30
0.0
  9
$USERI1
 70
     0
  9
$USERI2
 70
     0
  9
$USERI3
 70
     0
  9
$USERI4
 70
     0
  9
$USERI5
 70
     0
  9
$USERR1
 40
0.0
  9
$USERR2
 40
0.0
  9
$USERR3
 40
0.0
  9
$USERR4
 40
0.0
  9
$USERR5
 40
0.0
  9
$WORLDVIEW
 70
     1
  9
$SHADEDGE
 70
     3
  9
$SHADEDIF
 70
    70
  9
$TILEMODE
 70
     0
  9
$MAXACTVP
 70
    64
  9
$PINSBASE
 10
0.0
 20
0.0
 30
0.0
  9
$PLIMCHECK
 70
     0
  9
$PEXTMIN
 10
0.0
 20
0.0
 30
0.0
  9
$PEXTMAX
 10
297.0
 20
210.0
 30
0.0
  9
$PLIMMIN
 10
0.0
 20
0.0
  9
$PLIMMAX
 10
297.0
 20
210.0
  9
$UNITMODE
 70
     0
  9
$VISRETAIN
 70
     1
  9
$PLINEGEN
 70
     0
  9
$PSLTSCALE
 70
     1
  9
$TREEDEPTH
 70
  3020
  9
$CMLSTYLE
  2
Standard
  9
$CMLJUST
 70
     0
  9
$CMLSCALE
 40
20.0
  9
$PROXYGRAPHICS
 70
     1
  9
$MEASUREMENT
 70
     1
  9
$CELWEIGHT
370
    -1
  9
$ENDCAPS
280
     0
  9
$JOINSTYLE
280
     0
  9
$LWDISPLAY
290
     1
  9
$INSUNITS
 70
     4
  9
$HYPERLINKBASE
  1

  9
$STYLESHEET
  1

  9
$XEDIT
290
     1
  9
$CEPSNTYPE
380
     0
  9
$PSTYLEMODE
290
     1
  9
$FINGERPRINTGUID
  2
{05F09029-D8EC-4656-9E8C-026066989122}
  9
$VERSIONGUID
  2
{FAEB1C32-E019-11D5-929B-00C0DF256EC4}
  9
$EXTNAMES
290
     1
  9
$PSVPSCALE
 40
0.0
  9
$OLESTARTUP
290
     0
  0
ENDSEC
  0
SECTION
  2
CLASSES
  0
CLASS
  1
ACDBDICTIONARYWDFLT
  2
AcDbDictionaryWithDefault
  3
ObjectDBX Classes
 90
        0
280
     0
281
     0
  0
CLASS
  1
VISUALSTYLE
  2
AcDbVisualStyle
  3
ObjectDBX Classes
 90
     4095
280
     0
281
     0
  0
CLASS
  1
MATERIAL
  2
AcDbMaterial
  3
ObjectDBX Classes
 90
     1153
280
     0
281
     0
  0
CLASS
  1
SCALE
  2
AcDbScale
  3
ObjectDBX Classes
 90
     1153
280
     0
281
     0
  0
CLASS
  1
SUN
  2
AcDbSun
  3
SCENEOE
 90
     1153
280
     0
281
     0
  0
CLASS
  1
ACDBPLACEHOLDER
  2
AcDbPlaceHolder
  3
ObjectDBX Classes
 90
        0
280
     0
281
     0
  0
CLASS
  1
LAYOUT
  2
AcDbLayout
  3
ObjectDBX Classes
 90
        0
280
     0
281
     0
  0
ENDSEC
  0
SECTION
  2
TABLES
  0
TABLE
  2
VPORT
  5
8
330
0
100
AcDbSymbolTable
 70
     1
  0
VPORT
  5
29
330
8
100
AcDbSymbolTableRecord
100
AcDbViewportTableRecord
  2
*Active
 70
     0
 10
0.0
 20
0.0
 11
1.0
 21
1.0
 12
148.5
 22
105.0
 13
0.0
 23
0.0
 14
10.0
 24
10.0
 15
10.0
 25
10.0
 16
0.0
 26
0.0
 36
1.0
 17
0.0
 27
0.0
 37
0.0
 40
210.0
 41
1.4142857143
 42
50.0
 43
0.0
 44
0.0
 50
0.0
 51
0.0
 71
     0
 72
  2000
 73
     1
 74
     3
 75
     0
 76
     0
 77
     0
 78
     0
281
     0
 65
     1
110
0.0
120
0.0
130
0.0
111
1.0
121
0.0
131
0.0
112
0.0
122
1.0
132
0.0
 79
     0
146
0.0
  0
ENDTAB
  0
TABLE
  2
LTYPE
  5
5
330
0
100
AcDbSymbolTable
 70
     6
  0
LTYPE
  5
14
330
5
100
AcDbSymbolTableRecord
100
AcDbLinetypeTableRecord
  2
ByBlock
 70
     0
  3

 72
    65
 73
     0
 40
0.0
  0
LTYPE
  5
15
330
5
100
AcDbSymbolTableRecord
100
AcDbLinetypeTableRecord
  2
ByLayer
 70
     0
  3

 72
    65
 73
     0
 40
0.0
  0
LTYPE
  5
16
330
5
100
AcDbSymbolTableRecord
100
AcDbLinetypeTableRecord
  2
Continuous
 70
     0
  3
Solid line
 72
    65
 73
     0
 40
0.0
  0
LTYPE
  5
6A
330
5
100
AcDbSymbolTableRecord
100
AcDbLinetypeTableRecord
  2
HIDDEN
 70
     0
  3
Hidden __ __ __ __ __ __ __ __ __ __ __ __ __ __
 72
    65
 73
     2
 40
1.905
 49
1.27
 74
     0
 49
-0.635
 74
     0
  0
LTYPE
  5
6B
330
5
100
AcDbSymbolTableRecord
100
AcDbLinetypeTableRecord
  2
PHANTOM
 70
     0
  3
Phantom ______  __  __  ______  __  __  ______
 72
    65
 73
     6
 40
12.7
 49
6.35
 74
     0
 49
-1.27
 74
     0
 49
1.27
 74
     0
 49
-1.27
 74
     0
 49
1.27
 74
     0
 49
-1.27
 74
     0
  0
LTYPE
  5
6C
330
5
100
AcDbSymbolTableRecord
100
AcDbLinetypeTableRecord
  2
CENTER
 70
     0
  3
Center ____ _ ____ _ ____ _ ____ _ ____ _ ____
 72
    65
 73
     4
 40
10.16
 49
6.35
 74
     0
 49
-1.27
 74
     0
 49
1.27
 74
     0
 49
-1.27
 74
     0
  0
LTYPE
  5
6D
330
5
100
AcDbSymbolTableRecord
100
AcDbLinetypeTableRecord
  2
CENTERX2
 70
     0
  3
Center (2x) ________  __  ________  __  _____
 72
    65
 73
     4
 40
20.32
 49
12.7
 74
     0
 49
-2.54
 74
     0
 49
2.54
 74
     0
 49
-2.54
 74
     0
  0
LTYPE
  5
6E
330
5
100
AcDbSymbolTableRecord
100
AcDbLinetypeTableRecord
  2
DOT2
 70
     0
  3
Dot (.5x) ........................................
 72
    65
 73
     2
 40
0.635
 49
0.0
 74
     0
 49
-0.635
 74
     0
  0
ENDTAB
  0
TABLE
  2
LAYER
  5
2
330
0
100
AcDbSymbolTable
 70
    13
  0
LAYER
  5
10
330
2
100
AcDbSymbolTableRecord
100
AcDbLayerTableRecord
  2
0
 70
     0
 62
     7
  6
Continuous
370
    -3
390
F
  0
LAYER
  5
6F
330
2
100
AcDbSymbolTableRecord
100
AcDbLayerTableRecord
  2
OUTLINE_0_7
 70
     0
 62
     7
  6
Continuous
370
    60
390
F
  0
LAYER
  5
70
330
2
100
AcDbSymbolTableRecord
100
AcDbLayerTableRecord
  2
OUTLINE_0_5
 70
     0
 62
     7
  6
Continuous
370
    40
390
F
  0
LAYER
  5
71
330
2
100
AcDbSymbolTableRecord
100
AcDbLayerTableRecord
  2
OUTLINE_0_35
 70
     0
 62
     7
  6
Continuous
370
    30
390
F
  0
LAYER
  5
72
330
2
100
AcDbSymbolTableRecord
100
AcDbLayerTableRecord
  2
OUTLINE_0_25
 70
     0
 62
     7
  6
Continuous
370
    15
390
F
  0
LAYER
  5
73
330
2
100
AcDbSymbolTableRecord
100
AcDbLayerTableRecord
  2
OUTLINE_0_18
 70
     0
 62
     7
  6
Continuous
370
    -3
390
F
  0
LAYER
  5
74
330
2
100
AcDbSymbolTableRecord
100
AcDbLayerTableRecord
  2
STD__DIM_
 70
     0
 62
     7
  6
Continuous
370
    15
390
F
  0
LAYER
  5
75
330
2
100
AcDbSymbolTableRecord
100
AcDbLayerTableRecord
  2
PROD__DIM_
 70
     0
 62
   150
  6
Continuous
370
    15
390
F
  0
LAYER
  5
76
330
2
100
AcDbSymbolTableRecord
100
AcDbLayerTableRecord
  2
CENTRELINE
 70
     0
 62
     7
  6
CENTER
370
    15
390
F
  0
LAYER
  5
77
330
2
100
AcDbSymbolTableRecord
100
AcDbLayerTableRecord
  2
HIDDEN_1
 70
     0
 62
     7
  6
HIDDEN
370
    -3
390
F
  0
LAYER
  5
78
330
2
100
AcDbSymbolTableRecord
100
AcDbLayerTableRecord
  2
HIDDEN_2
 70
     0
 62
     7
  6
DOT2
370
    -3
390
F
  0
LAYER
  5
79
330
2
100
AcDbSymbolTableRecord
100
AcDbLayerTableRecord
  2
STD__DIM
 70
     0
 62
     7
  6
Continuous
370
    15
390
F
  0
LAYER
  5
7A
330
2
100
AcDbSymbolTableRecord
100
AcDbLayerTableRecord
  2
PROD__DIM
 70
     0
 62
     5
  6
Continuous
370
    15
390
F
  0
ENDTAB
  0
TABLE
  2
STYLE
  5
3
330
0
100
AcDbSymbolTable
 70
     5
  0
STYLE
  5
11
330
3
100
AcDbSymbolTableRecord
100
AcDbTextStyleTableRecord
  2
Standard
 70
     0
 40
0.0
 41
1.0
 50
0.0
 71
     0
 42
1.7638888889
  3
txt
  4

  0
STYLE
  5
A7
330
3
100
AcDbSymbolTableRecord
100
AcDbTextStyleTableRecord
  2
SLDTEXTSTYLE0
 70
     0
 40
0.0
 41
0.7
 50
0.0
 71
     0
 42
1.7638888889
  3
TXT
  4

  0
STYLE
  5
DD
330
3
100
AcDbSymbolTableRecord
100
AcDbTextStyleTableRecord
  2
SLDTEXTSTYLE1
 70
     0
 40
0.0
 41
0.75
 50
0.0
 71
     0
 42
1.7638888889
  3
TXT
  4

  0
STYLE
  5
EE
330
3
100
AcDbSymbolTableRecord
100
AcDbTextStyleTableRecord
  2
SLDTEXTSTYLE2
 70
     0
 40
0.0
 41
0.6785714286
 50
0.0
 71
     0
 42
1.7638888889
  3
TXT
  4

  0
STYLE
  5
104
330
3
100
AcDbSymbolTableRecord
100
AcDbTextStyleTableRecord
  2
SLDTEXTSTYLE3
 70
     0
 40
0.0
 41
0.605
 50
0.0
 71
     0
 42
1.7638888889
  3
TXT
  4

  0
ENDTAB
  0
TABLE
  2
VIEW
  5
6
330
0
100
AcDbSymbolTable
 70
     0
  0
ENDTAB
  0
TABLE
  2
UCS
  5
7
330
0
100
AcDbSymbolTable
 70
     0
  0
ENDTAB
  0
TABLE
  2
APPID
  5
9
330
0
100
AcDbSymbolTable
 70
     1
  0
APPID
  5
12
330
9
100
AcDbSymbolTableRecord
100
AcDbRegAppTableRecord
  2
ACAD
 70
     0
  0
ENDTAB
  0
TABLE
  2
DIMSTYLE
  5
A
330
0
100
AcDbSymbolTable
 70
     6
100
AcDbDimStyleTable
  0
DIMSTYLE
105
27
330
A
100
AcDbSymbolTableRecord
100
AcDbDimStyleTableRecord
  2
ISO-25
 70
     0
 41
2.5
 42
0.625
 43
3.75
 44
1.25
 73
     0
 74
     0
 77
     1
 78
     8
140
2.5
141
2.5
143
0.0393700787
147
0.625
171
     3
172
     1
178
     0
271
     2
272
     2
274
     3
278
    44
283
     0
284
     8
340
11
  0
DIMSTYLE
105
121
102
{ACAD_REACTORS
330
120
330
134
102
}
330
A
100
AcDbSymbolTableRecord
100
AcDbDimStyleTableRecord
  2
SLDDIMSTYLE0
 70
     0
 41
1.5
 44
0.0
 45
0.000000001
 48
0.1
 71
     1
 73
     0
 74
     0
 77
     1
 78
     4
 79
     1
140
1.2841593424
144
0.5
147
0.3210398356
173
     1
178
     0
271
     1
272
     2
276
     2
340
A7
341
122
343
122
344
122
  0
DIMSTYLE
105
142
102
{ACAD_REACTORS
330
141
102
}
330
A
100
AcDbSymbolTableRecord
100
AcDbDimStyleTableRecord
  2
SLDDIMSTYLE1
 70
     0
 41
1.5
 44
0.0
 45
0.000000001
 78
     4
 79
     1
140
1.2841593424
141
0.0
144
0.5
147
0.3210398356
173
     1
178
     0
271
     1
272
     2
276
     2
284
    12
340
A7
341
122
343
122
344
122
  0
DIMSTYLE
105
14D
102
{ACAD_REACTORS
330
14C
102
}
330
A
100
AcDbSymbolTableRecord
100
AcDbDimStyleTableRecord
  2
SLDDIMSTYLE2
 70
     0
 41
1.5
 44
0.0
 45
0.000000001
 73
     0
 74
     0
 77
     1
 78
     4
 79
     1
140
1.2841593424
144
0.5
147
0.3210398356
172
     1
173
     1
178
     0
271
     1
272
     2
276
     2
284
    12
289
     0
340
A7
341
122
343
122
344
122
  0
DIMSTYLE
105
159
102
{ACAD_REACTORS
330
158
102
}
330
A
100
AcDbSymbolTableRecord
100
AcDbDimStyleTableRecord
  2
SLDDIMSTYLE3
 70
     0
 41
1.5
 44
0.0
 45
0.000000001
 78
     8
 79
     2
140
1.2841593424
141
0.0
144
0.5
147
0.3210398356
173
     1
178
     0
271
     1
272
     2
276
     2
279
     1
284
    12
340
A7
341
122
343
122
344
122
  0
DIMSTYLE
105
164
102
{ACAD_REACTORS
330
163
102
}
330
A
100
AcDbSymbolTableRecord
100
AcDbDimStyleTableRecord
  2
SLDDIMSTYLE4
 70
     0
 41
1.5
 44
0.0
 45
0.000000001
 73
     0
 74
     0
 77
     1
 78
    12
 79
     3
140
1.2841593424
144
0.5
147
0.3210398356
173
     1
178
     0
271
     1
272
     2
276
     2
284
    12
340
A7
341
122
343
122
344
122
  0
ENDTAB
  0
TABLE
  2
BLOCK_RECORD
  5
1
330
0
100
AcDbSymbolTable
 70
    14
  0
BLOCK_RECORD
  5
1F
330
1
100
AcDbSymbolTableRecord
100
AcDbBlockTableRecord
  2
*Model_Space
340
22
  0
BLOCK_RECORD
  5
1B
330
1
100
AcDbSymbolTableRecord
100
AcDbBlockTableRecord
  2
*Paper_Space
340
1E
  0
BLOCK_RECORD
  5
A4
330
1
100
AcDbSymbolTableRecord
100
AcDbBlockTableRecord
  2
SW_NOTE_0
340
0
102
{BLKREFS
331
AE
102
}
  0
BLOCK_RECORD
  5
AF
330
1
100
AcDbSymbolTableRecord
100
AcDbBlockTableRecord
  2
SW_NOTE_1
340
0
102
{BLKREFS
331
B9
102
}
  0
BLOCK_RECORD
  5
BC
330
1
100
AcDbSymbolTableRecord
100
AcDbBlockTableRecord
  2
SW_NOTE_2
340
0
102
{BLKREFS
331
C6
102
}
  0
BLOCK_RECORD
  5
C7
330
1
100
AcDbSymbolTableRecord
100
AcDbBlockTableRecord
  2
SW_NOTE_3
340
0
102
{BLKREFS
331
D1
102
}
  0
BLOCK_RECORD
  5
D2
330
1
100
AcDbSymbolTableRecord
100
AcDbBlockTableRecord
  2
SW_NOTE_4
340
0
102
{BLKREFS
331
DC
102
}
  0
BLOCK_RECORD
  5
101
330
1
100
AcDbSymbolTableRecord
100
AcDbBlockTableRecord
  2
SW_NOTE_5
340
0
102
{BLKREFS
331
107
102
}
  0
BLOCK_RECORD
  5
122
330
1
100
AcDbSymbolTableRecord
100
AcDbBlockTableRecord
  2
_OPEN30
340
0
102
{BLKREFS
331
12B
331
12C
331
138
331
139
331
146
331
151
331
152
331
15D
331
168
331
169
102
}
  0
BLOCK_RECORD
  5
128
330
1
100
AcDbSymbolTableRecord
100
AcDbBlockTableRecord
  2
_D
340
0
  0
BLOCK_RECORD
  5
135
330
1
100
AcDbSymbolTableRecord
100
AcDbBlockTableRecord
  2
_D_1
340
0
  0
BLOCK_RECORD
  5
143
330
1
100
AcDbSymbolTableRecord
100
AcDbBlockTableRecord
  2
_D_2
340
0
  0
BLOCK_RECORD
  5
14E
330
1
100
AcDbSymbolTableRecord
100
AcDbBlockTableRecord
  2
_D_3
340
0
  0
BLOCK_RECORD
  5
15A
330
1
100
AcDbSymbolTableRecord
100
AcDbBlockTableRecord
  2
_D_4
340
0
  0
BLOCK_RECORD
  5
165
330
1
100
AcDbSymbolTableRecord
100
AcDbBlockTableRecord
  2
_D_5
340
0
  0
ENDTAB
  0
ENDSEC
  0
SECTION
  2
BLOCKS
  0
BLOCK
  5
20
330
1F
100
AcDbEntity
  8
0
100
AcDbBlockBegin
  2
*Model_Space
 70
     0
 10
0.0
 20
0.0
 30
0.0
  3
*Model_Space
  1
*Model_Space
  0
ENDBLK
  5
21
330
1F
100
AcDbEntity
  8
0
100
AcDbBlockEnd
  0
BLOCK
  5
1C
330
1B
100
AcDbEntity
 67
     1
  8
0
100
AcDbBlockBegin
  2
*Paper_Space
 70
     0
 10
0.0
 20
0.0
 30
0.0
  3
*Paper_Space
  1
*Paper_Space
  0
ENDBLK
  5
1D
330
1B
100
AcDbEntity
 67
     1
  8
0
100
AcDbBlockEnd
  0
BLOCK
  5
A5
330
A4
100
AcDbEntity
  8
0
100
AcDbBlockBegin
  2
SW_NOTE_0
 70
     0
 10
0.0
 20
0.0
 30
0.0
  3
SW_NOTE_0
  1
SW_NOTE_0
  0
MTEXT
  5
A8
330
A4
100
AcDbEntity
  8
OUTLINE_0_18
 62
     0
 48
0.5
100
AcDbMText
 10
0.0
 20
2.0463950369
 30
0.0
 40
1.5875
 41
0.0
 71
     1
 72
     1
  1
MATERIAL - FIBREGLASS PULTRUSION
  7
SLDTEXTSTYLE0
 73
     1
 44
1.0
  0
MTEXT
  5
A9
330
A4
100
AcDbEntity
  8
OUTLINE_0_18
 62
     0
 48
0.5
100
AcDbMText
 10
0.0
 20
-0.0702716042
 30
0.0
 40
1.5875
 41
0.0
 71
     1
 72
     1
  1
COLOUR - NEUTRAL
  7
SLDTEXTSTYLE0
 73
     1
 44
1.0
  0
MTEXT
  5
AA
330
A4
100
AcDbEntity
  8
OUTLINE_0_18
 62
     0
 48
0.5
100
AcDbMText
 10
0.0
 20
-2.1869382453
 30
0.0
 40
1.5875
 41
0.0
 71
     1
 72
     1
  1
EXTRUSION LENGTH - 2.5 Mtrs
  7
SLDTEXTSTYLE0
 73
     1
 44
1.0
  0
MTEXT
  5
AB
330
A4
100
AcDbEntity
  8
OUTLINE_0_18
 62
     0
 48
0.5
100
AcDbMText
 10
0.0
 20
-6.4202715275
 30
0.0
 40
1.5875
 41
0.0
 71
     1
 72
     1
  1
GENERAL TOLERANCE
  7
SLDTEXTSTYLE0
 73
     1
 44
1.0
  0
MTEXT
  5
AC
330
A4
100
AcDbEntity
  8
OUTLINE_0_18
 62
     0
 48
0.5
100
AcDbMText
 10
24.2240745574
 20
-6.4202715275
 30
0.0
 40
1.5875
 41
0.0
 71
     1
 72
     1
  1
%%p
  7
SLDTEXTSTYLE0
 73
     1
 44
1.0
  0
MTEXT
  5
AD
330
A4
100
AcDbEntity
  8
OUTLINE_0_18
 62
     0
 48
0.5
100
AcDbMText
 10
25.6440043449
 20
-6.4202715275
 30
0.0
 40
1.5875
 41
0.0
 71
     1
 72
     1
  1
0.2 UNLESS OTHERWISE STATED
  7
SLDTEXTSTYLE0
 73
     1
 44
1.0
  0
ENDBLK
  5
A6
330
A4
100
AcDbEntity
  8
0
100
AcDbBlockEnd
  0
BLOCK
  5
B0
330
AF
100
AcDbEntity
  8
0
100
AcDbBlockBegin
  2
SW_NOTE_1
 70
     0
 10
0.0
 20
0.0
 30
0.0
  3
SW_NOTE_1
  1
SW_NOTE_1
  0
LINE
  5
B2
330
AF
100
AcDbEntity
  8
OUTLINE_0_18
 62
     0
 48
0.5
100
AcDbLine
 10
-0.5549612174
 20
0.9344352166
 30
0.0
 11
-0.0084681545
 21
1.8809889675
 31
0.0
  0
LINE
  5
B3
330
AF
100
AcDbEntity
  8
OUTLINE_0_18
 62
     0
 48
0.5
100
AcDbLine
 10
-0.0084681545
 20
1.8809889675
 30
0.0
 11
1.0845179712
 21
1.8809889675
 31
0.0
  0
LINE
  5
B4
330
AF
100
AcDbEntity
  8
OUTLINE_0_18
 62
     0
 48
0.5
100
AcDbLine
 10
1.0845179712
 20
1.8809889675
 30
0.0
 11
1.6310110341
 21
0.9344352166
 31
0.0
  0
LINE
  5
B5
330
AF
100
AcDbEntity
  8
OUTLINE_0_18
 62
     0
 48
0.5
100
AcDbLine
 10
1.6310110341
 20
0.9344352166
 30
0.0
 11
1.0845179712
 21
-0.0121185343
 31
0.0
  0
LINE
  5
B6
330
AF
100
AcDbEntity
  8
OUTLINE_0_18
 62
     0
 48
0.5
100
AcDbLine
 10
1.0845179712
 20
-0.0121185343
 30
0.0
 11
-0.0084681545
 21
-0.0121185343
 31
0.0
  0
LINE
  5
B7
330
AF
100
AcDbEntity
  8
OUTLINE_0_18
 62
     0
 48
0.5
100
AcDbLine
 10
-0.0084681545
 20
-0.0121185343
 30
0.0
 11
-0.5549612174
 21
0.9344352166
 31
0.0
  0
MTEXT
  5
B8
330
AF
100
AcDbEntity
  8
OUTLINE_0_18
 62
     0
 48
0.5
100
AcDbMText
 10
0.0
 20
1.7053291974
 30
0.0
 40
1.3229166667
 41
0.0
 71
     1
 72
     1
  1
B
  7
SLDTEXTSTYLE0
 73
     1
 44
1.0
  0
ENDBLK
  5
B1
330
AF
100
AcDbEntity
  8
0
100
AcDbBlockEnd
  0
BLOCK
  5
BD
330
BC
100
AcDbEntity
  8
0
100
AcDbBlockBegin
  2
SW_NOTE_2
 70
     0
 10
0.0
 20
0.0
 30
0.0
  3
SW_NOTE_2
  1
SW_NOTE_2
  0
LINE
  5
BF
330
BC
100
AcDbEntity
  8
OUTLINE_0_18
 62
     0
 48
0.5
100
AcDbLine
 10
-0.5147673236
 20
0.9589643243
 30
0.0
 11
0.0583498074
 21
1.9516323139
 31
0.0
  0
LINE
  5
C0
330
BC
100
AcDbEntity
  8
OUTLINE_0_18
 62
     0
 48
0.5
100
AcDbLine
 10
0.0583498074
 20
1.9516323139
 30
0.0
 11
1.2045840695
 21
1.9516323139
 31
0.0
  0
LINE
  5
C1
330
BC
100
AcDbEntity
  8
OUTLINE_0_18
 62
     0
 48
0.5
100
AcDbLine
 10
1.2045840695
 20
1.9516323139
 30
0.0
 11
1.7777012005
 21
0.9589643243
 31
0.0
  0
LINE
  5
C2
330
BC
100
AcDbEntity
  8
OUTLINE_0_18
 62
     0
 48
0.5
100
AcDbLine
 10
1.7777012005
 20
0.9589643243
 30
0.0
 11
1.2045840695
 21
-0.0337036654
 31
0.0
  0
LINE
  5
C3
330
BC
100
AcDbEntity
  8
OUTLINE_0_18
 62
     0
 48
0.5
100
AcDbLine
 10
1.2045840695
 20
-0.0337036654
 30
0.0
 11
0.0583498074
 21
-0.0337036654
 31
0.0
  0
LINE
  5
C4
330
BC
100
AcDbEntity
  8
OUTLINE_0_18
 62
     0
 48
0.5
100
AcDbLine
 10
0.0583498074
 20
-0.0337036654
 30
0.0
 11
-0.5147673236
 21
0.9589643243
 31
0.0
  0
MTEXT
  5
C5
330
BC
100
AcDbEntity
  8
OUTLINE_0_18
 62
     0
 48
0.5
100
AcDbMText
 10
0.0
 20
1.7053291974
 30
0.0
 40
1.3229166667
 41
0.0
 71
     1
 72
     1
  1
C
  7
SLDTEXTSTYLE0
 73
     1
 44
1.0
  0
ENDBLK
  5
BE
330
BC
100
AcDbEntity
  8
0
100
AcDbBlockEnd
  0
BLOCK
  5
C8
330
C7
100
AcDbEntity
  8
0
100
AcDbBlockBegin
  2
SW_NOTE_3
 70
     0
 10
0.0
 20
0.0
 30
0.0
  3
SW_NOTE_3
  1
SW_NOTE_3
  0
LINE
  5
CA
330
C7
100
AcDbEntity
  8
OUTLINE_0_18
 62
     0
 48
0.5
100
AcDbLine
 10
-0.5138380658
 20
0.9436241164
 30
0.0
 11
0.0592790652
 21
1.9362921061
 31
0.0
  0
LINE
  5
CB
330
C7
100
AcDbEntity
  8
OUTLINE_0_18
 62
     0
 48
0.5
100
AcDbLine
 10
0.0592790652
 20
1.9362921061
 30
0.0
 11
1.2055133273
 21
1.9362921061
 31
0.0
  0
LINE
  5
CC
330
C7
100
AcDbEntity
  8
OUTLINE_0_18
 62
     0
 48
0.5
100
AcDbLine
 10
1.2055133273
 20
1.9362921061
 30
0.0
 11
1.7786304583
 21
0.9436241164
 31
0.0
  0
LINE
  5
CD
330
C7
100
AcDbEntity
  8
OUTLINE_0_18
 62
     0
 48
0.5
100
AcDbLine
 10
1.7786304583
 20
0.9436241164
 30
0.0
 11
1.2055133273
 21
-0.0490438732
 31
0.0
  0
LINE
  5
CE
330
C7
100
AcDbEntity
  8
OUTLINE_0_18
 62
     0
 48
0.5
100
AcDbLine
 10
1.2055133273
 20
-0.0490438732
 30
0.0
 11
0.0592790652
 21
-0.0490438732
 31
0.0
  0
LINE
  5
CF
330
C7
100
AcDbEntity
  8
OUTLINE_0_18
 62
     0
 48
0.5
100
AcDbLine
 10
0.0592790652
 20
-0.0490438732
 30
0.0
 11
-0.5138380658
 21
0.9436241164
 31
0.0
  0
MTEXT
  5
D0
330
C7
100
AcDbEntity
  8
OUTLINE_0_18
 62
     0
 48
0.5
100
AcDbMText
 10
0.0
 20
1.7053291974
 30
0.0
 40
1.3229166667
 41
0.0
 71
     1
 72
     1
  1
C
  7
SLDTEXTSTYLE0
 73
     1
 44
1.0
  0
ENDBLK
  5
C9
330
C7
100
AcDbEntity
  8
0
100
AcDbBlockEnd
  0
BLOCK
  5
D3
330
D2
100
AcDbEntity
  8
0
100
AcDbBlockBegin
  2
SW_NOTE_4
 70
     0
 10
0.0
 20
0.0
 30
0.0
  3
SW_NOTE_4
  1
SW_NOTE_4
  0
LINE
  5
D5
330
D2
100
AcDbEntity
  8
OUTLINE_0_18
 62
     0
 48
0.5
100
AcDbLine
 10
-0.5521815796
 20
0.9589643243
 30
0.0
 11
-0.0056885167
 21
1.9055180751
 31
0.0
  0
LINE
  5
D6
330
D2
100
AcDbEntity
  8
OUTLINE_0_18
 62
     0
 48
0.5
100
AcDbLine
 10
-0.0056885167
 20
1.9055180751
 30
0.0
 11
1.087297609
 21
1.9055180751
 31
0.0
  0
LINE
  5
D7
330
D2
100
AcDbEntity
  8
OUTLINE_0_18
 62
     0
 48
0.5
100
AcDbLine
 10
1.087297609
 20
1.9055180751
 30
0.0
 11
1.6337906719
 21
0.9589643243
 31
0.0
  0
LINE
  5
D8
330
D2
100
AcDbEntity
  8
OUTLINE_0_18
 62
     0
 48
0.5
100
AcDbLine
 10
1.6337906719
 20
0.9589643243
 30
0.0
 11
1.087297609
 21
0.0124105734
 31
0.0
  0
LINE
  5
D9
330
D2
100
AcDbEntity
  8
OUTLINE_0_18
 62
     0
 48
0.5
100
AcDbLine
 10
1.087297609
 20
0.0124105734
 30
0.0
 11
-0.0056885167
 21
0.0124105734
 31
0.0
  0
LINE
  5
DA
330
D2
100
AcDbEntity
  8
OUTLINE_0_18
 62
     0
 48
0.5
100
AcDbLine
 10
-0.0056885167
 20
0.0124105734
 30
0.0
 11
-0.5521815796
 21
0.9589643243
 31
0.0
  0
MTEXT
  5
DB
330
D2
100
AcDbEntity
  8
OUTLINE_0_18
 62
     0
 48
0.5
100
AcDbMText
 10
0.0
 20
1.7053291974
 30
0.0
 40
1.3229166667
 41
0.0
 71
     1
 72
     1
  1
E
  7
SLDTEXTSTYLE0
 73
     1
 44
1.0
  0
ENDBLK
  5
D4
330
D2
100
AcDbEntity
  8
0
100
AcDbBlockEnd
  0
BLOCK
  5
102
330
101
100
AcDbEntity
  8
0
100
AcDbBlockBegin
  2
SW_NOTE_5
 70
     0
 10
0.0
 20
0.0
 30
0.0
  3
SW_NOTE_5
  1
SW_NOTE_5
  0
MTEXT
  5
105
330
101
100
AcDbEntity
  8
OUTLINE_0_18
 62
     0
 48
0.5
100
AcDbMText
 10
0.0
 20
8.1855801476
 30
0.0
 40
6.35
 41
0.0
 71
     1
 72
     1
  1
Styro
  7
SLDTEXTSTYLE3
 73
     1
 44
1.0
  0
MTEXT
  5
106
330
101
100
AcDbEntity
  8
OUTLINE_0_18
 62
     0
 48
0.5
100
AcDbMText
 10
19.7555553168
 20
8.1855801476
 30
0.0
 40
6.35
 41
0.0
 71
     1
 72
     1
  1
MAX
  7
SLDTEXTSTYLE3
 73
     1
 44
1.0
  0
ENDBLK
  5
103
330
101
100
AcDbEntity
  8
0
100
AcDbBlockEnd
  0
BLOCK
  5
123
330
122
100
AcDbEntity
  8
0
100
AcDbBlockBegin
  2
_OPEN30
 70
     0
 10
0.0
 20
0.0
 30
0.0
  3
_OPEN30
  1
_OPEN30
  0
LINE
  5
125
330
122
100
AcDbEntity
  8
0
  6
ByBlock
 62
     0
370
    -2
100
AcDbLine
 10
-1.0
 20
0.267949
 30
0.0
 11
0.0
 21
0.0
 31
0.0
  0
LINE
  5
126
330
122
100
AcDbEntity
  8
0
  6
ByBlock
 62
     0
370
    -2
100
AcDbLine
 10
0.0
 20
0.0
 30
0.0
 11
-1.0
 21
-0.267949
 31
0.0
  0
LINE
  5
127
330
122
100
AcDbEntity
  8
0
  6
ByBlock
 62
     0
370
    -2
100
AcDbLine
 10
0.0
 20
0.0
 30
0.0
 11
-1.0
 21
0.0
 31
0.0
  0
ENDBLK
  5
124
330
122
100
AcDbEntity
  8
0
100
AcDbBlockEnd
  0
BLOCK
  5
129
330
128
100
AcDbEntity
  8
0
100
AcDbBlockBegin
  2
_D
 70
     0
 10
0.0
 20
0.0
 30
0.0
  3
_D
  1
_D
  0
INSERT
  5
12B
330
128
100
AcDbEntity
  8
OUTLINE_0_18
 62
     7
 48
0.5
100
AcDbBlockReference
  2
_OPEN30
 10
59.9057069914
 20
89.4074552826
 30
0.1
 41
1.5
 42
1.5
 50
180.0
  0
INSERT
  5
12C
330
128
100
AcDbEntity
  8
OUTLINE_0_18
 62
     7
 48
0.5
100
AcDbBlockReference
  2
_OPEN30
 10
84.9057069914
 20
89.4074552826
 30
0.1
 41
1.5
 42
1.5
 50
0.0
  0
LINE
  5
12D
330
128
100
AcDbEntity
  8
OUTLINE_0_18
 62
     7
 48
0.5
100
AcDbLine
 10
59.9057069914
 20
87.1011979576
 30
0.0
 11
59.9057069914
 21
89.9074552826
 31
0.0
  0
LINE
  5
12E
330
128
100
AcDbEntity
  8
OUTLINE_0_18
 62
     7
 48
0.5
100
AcDbLine
 10
84.9057069914
 20
87.1011979576
 30
0.0
 11
84.9057069914
 21
89.9074552826
 31
0.0
  0
LINE
  5
12F
330
128
100
AcDbEntity
  8
OUTLINE_0_18
 62
     7
 48
0.5
100
AcDbLine
 10
59.9057069914
 20
89.4074552826
 30
0.0
 11
84.9057069914
 21
89.4074552826
 31
0.0
  0
MTEXT
  5
130
330
128
100
AcDbEntity
  8
OUTLINE_0_18
 62
     7
 48
0.5
100
AcDbMText
 10
68.2426079498
 20
91.1127845674
 30
0.0
 40
1.3229166667
 41
0.0
 71
     1
 72
     1
  1
25.0
  7
SLDTEXTSTYLE0
 73
     1
 44
1.0
  0
MTEXT
  5
131
330
128
100
AcDbEntity
  8
OUTLINE_0_18
 62
     7
 48
0.5
100
AcDbMText
 10
72.3486782374
 20
91.1127845674
 30
0.0
 40
1.3229166667
 41
0.0
 71
     1
 72
     1
  1
-
  7
SLDTEXTSTYLE0
 73
     1
 44
1.0
  0
MTEXT
  5
132
330
128
100
AcDbEntity
  8
OUTLINE_0_18
 62
     7
 48
0.5
100
AcDbMText
 10
73.1470807933
 20
91.1127845674
 30
0.0
 40
1.3229166667
 41
0.0
 71
     1
 72
     1
  1
0.20
  7
SLDTEXTSTYLE0
 73
     1
 44
1.0
  0
MTEXT
  5
133
330
128
100
AcDbEntity
  8
OUTLINE_0_18
 62
     7
 48
0.5
100
AcDbMText
 10
73.1470807933
 20
93.0517622031
 30
0.0
 40
1.3229166667
 41
0.0
 71
     1
 72
     1
  1
0.00
  7
SLDTEXTSTYLE0
 73
     1
 44
1.0
  0
ENDBLK
  5
12A
330
128
100
AcDbEntity
  8
0
100
AcDbBlockEnd
  0
BLOCK
  5
136
330
135
100
AcDbEntity
  8
0
100
AcDbBlockBegin
  2
_D_1
 70
     0
 10
0.0
 20
0.0
 30
0.0
  3
_D_1
  1
_D_1
  0
INSERT
  5
138
330
135
100
AcDbEntity
  8
OUTLINE_0_18
 62
     7
 48
0.5
100
AcDbBlockReference
  2
_OPEN30
 10
89.9057069914
 20
86.6011979576
 30
0.1
 41
1.5
 42
1.5
 50
90.0
  0
INSERT
  5
139
330
135
100
AcDbEntity
  8
OUTLINE_0_18
 62
     7
 48
0.5
100
AcDbBlockReference
  2
_OPEN30
 10
89.9057069914
 20
41.6011979576
 30
0.1
 41
1.5
 42
1.5
 50
270.0
  0
LINE
  5
13A
330
135
100
AcDbEntity
  8
OUTLINE_0_18
 62
     7
 48
0.5
100
AcDbLine
 10
85.4057069914
 20
86.6011979576
 30
0.0
 11
90.4057069914
 21
86.6011979576
 31
0.0
  0
LINE
  5
13B
330
135
100
AcDbEntity
  8
OUTLINE_0_18
 62
     7
 48
0.5
100
AcDbLine
 10
85.4057069914
 20
41.6011979576
 30
0.0
 11
90.4057069914
 21
41.6011979576
 31
0.0
  0
LINE
  5
13C
330
135
100
AcDbEntity
  8
OUTLINE_0_18
 62
     7
 48
0.5
100
AcDbLine
 10
89.9057069914
 20
86.6011979576
 30
0.0
 11
89.9057069914
 21
41.6011979576
 31
0.0
  0
MTEXT
  5
13D
330
135
100
AcDbEntity
  8
OUTLINE_0_18
 62
     7
 48
0.5
100
AcDbMText
 10
88.2003777066
 20
59.938098916
 30
0.0
 40
1.3229166667
 41
0.0
 71
     1
 72
     1
  1
45.0
  7
SLDTEXTSTYLE0
 11
-7.044195017643634E-15
 21
1.0
 31
0.0
 73
     1
 44
1.0
  0
MTEXT
  5
13E
330
135
100
AcDbEntity
  8
OUTLINE_0_18
 62
     7
 48
0.5
100
AcDbMText
 10
88.2003777066
 20
64.0441692036
 30
0.0
 40
1.3229166667
 41
0.0
 71
     1
 72
     1
  1
-
  7
SLDTEXTSTYLE0
 11
-7.044195017643634E-15
 21
1.0
 31
0.0
 73
     1
 44
1.0
  0
MTEXT
  5
13F
330
135
100
AcDbEntity
  8
OUTLINE_0_18
 62
     7
 48
0.5
100
AcDbMText
 10
88.2003777066
 20
64.8425717595
 30
0.0
 40
1.3229166667
 41
0.0
 71
     1
 72
     1
  1
0.20
  7
SLDTEXTSTYLE0
 11
-7.044195017643634E-15
 21
1.0
 31
0.0
 73
     1
 44
1.0
  0
MTEXT
  5
140
330
135
100
AcDbEntity
  8
OUTLINE_0_18
 62
     7
 48
0.5
100
AcDbMText
 10
86.2614000709
 20
64.8425717595
 30
0.0
 40
1.3229166667
 41
0.0
 71
     1
 72
     1
  1
0.00
  7
SLDTEXTSTYLE0
 11
-7.044195017643634E-15
 21
1.0
 31
0.0
 73
     1
 44
1.0
  0
ENDBLK
  5
137
330
135
100
AcDbEntity
  8
0
100
AcDbBlockEnd
  0
BLOCK
  5
144
330
143
100
AcDbEntity
  8
0
100
AcDbBlockBegin
  2
_D_2
 70
     0
 10
0.0
 20
0.0
 30
0.0
  3
_D_2
  1
_D_2
  0
INSERT
  5
146
330
143
100
AcDbEntity
  8
OUTLINE_0_18
 62
     7
 48
0.5
100
AcDbBlockReference
  2
_OPEN30
 10
60.0925971352
 20
86.1833082236
 30
0.1
 41
1.5
 42
1.5
 50
324.4008952017
  0
LINE
  5
147
330
143
100
AcDbEntity
  8
OUTLINE_0_18
 62
     7
 48
0.5
100
AcDbLine
 10
60.0925971352
 20
86.1833082236
 30
0.0
 11
57.0436177282
 21
88.36609103
 31
0.0
  0
LINE
  5
148
330
143
100
AcDbEntity
  8
OUTLINE_0_18
 62
     7
 48
0.5
100
AcDbLine
 10
57.0436177282
 20
88.36609103
 30
0.0
 11
48.259552233
 21
88.36609103
 31
0.0
  0
MTEXT
  5
149
330
143
100
AcDbEntity
  8
OUTLINE_0_18
 62
     7
 48
0.5
100
AcDbMText
 10
49.053302233
 20
90.0714203147
 30
0.0
 40
1.3229166667
 41
0.0
 71
     1
 72
     1
  1
R
  7
SLDTEXTSTYLE0
 73
     1
 44
1.0
  0
MTEXT
  5
14A
330
143
100
AcDbEntity
  8
OUTLINE_0_18
 62
     7
 48
0.5
100
AcDbMText
 10
50.3079348209
 20
90.0714203147
 30
0.0
 40
1.3229166667
 41
0.0
 71
     1
 72
     1
  1
1.0
  7
SLDTEXTSTYLE0
 73
     1
 44
1.0
  0
MTEXT
  5
14B
330
143
100
AcDbEntity
  8
OUTLINE_0_18
 62
     7
 48
0.5
100
AcDbMText
 10
53.1992362386
 20
90.0714203147
 30
0.0
 40
1.3229166667
 41
0.0
 71
     1
 72
     1
  1
Typ
  7
SLDTEXTSTYLE0
 73
     1
 44
1.0
  0
ENDBLK
  5
145
330
143
100
AcDbEntity
  8
0
100
AcDbBlockEnd
  0
BLOCK
  5
14F
330
14E
100
AcDbEntity
  8
0
100
AcDbBlockBegin
  2
_D_3
 70
     0
 10
0.0
 20
0.0
 30
0.0
  3
_D_3
  1
_D_3
  0
INSERT
  5
151
330
14E
100
AcDbEntity
  8
OUTLINE_0_18
 62
     7
 48
0.5
100
AcDbBlockReference
  2
_OPEN30
 10
63.9057069914
 20
73.8595350753
 30
0.1
 41
1.5
 42
1.5
 50
180.0
  0
INSERT
  5
152
330
14E
100
AcDbEntity
  8
OUTLINE_0_18
 62
     7
 48
0.5
100
AcDbBlockReference
  2
_OPEN30
 10
59.9057069914
 20
73.8595350753
 30
0.1
 41
1.5
 42
1.5
 50
0.0
  0
LINE
  5
153
330
14E
100
AcDbEntity
  8
OUTLINE_0_18
 62
     7
 48
0.5
100
AcDbLine
 10
63.9057069914
 20
73.8595350753
 30
0.0
 11
66.4057069914
 21
73.8595350753
 31
0.0
  0
LINE
  5
154
330
14E
100
AcDbEntity
  8
OUTLINE_0_18
 62
     7
 48
0.5
100
AcDbLine
 10
63.9057069914
 20
73.8595350753
 30
0.0
 11
59.9057069914
 21
73.8595350753
 31
0.0
  0
LINE
  5
155
330
14E
100
AcDbEntity
  8
OUTLINE_0_18
 62
     7
 48
0.5
100
AcDbLine
 10
59.9057069914
 20
73.8595350753
 30
0.0
 11
51.2034905377
 21
73.8595350753
 31
0.0
  0
MTEXT
  5
156
330
14E
100
AcDbEntity
  8
OUTLINE_0_18
 62
     7
 48
0.5
100
AcDbMText
 10
51.9972405377
 20
75.5648643601
 30
0.0
 40
1.3229166667
 41
0.0
 71
     1
 72
     1
  1
4.0
  7
SLDTEXTSTYLE0
 73
     1
 44
1.0
  0
MTEXT
  5
157
330
14E
100
AcDbEntity
  8
OUTLINE_0_18
 62
     7
 48
0.5
100
AcDbMText
 10
54.8885419554
 20
75.5648643601
 30
0.0
 40
1.3229166667
 41
0.0
 71
     1
 72
     1
  1
Typ
  7
SLDTEXTSTYLE0
 73
     1
 44
1.0
  0
ENDBLK
  5
150
330
14E
100
AcDbEntity
  8
0
100
AcDbBlockEnd
  0
BLOCK
  5
15B
330
15A
100
AcDbEntity
  8
0
100
AcDbBlockBegin
  2
_D_4
 70
     0
 10
0.0
 20
0.0
 30
0.0
  3
_D_4
  1
_D_4
  0
INSERT
  5
15D
330
15A
100
AcDbEntity
  8
OUTLINE_0_18
 62
     7
 48
0.5
100
AcDbBlockReference
  2
_OPEN30
 10
64.0077095748
 20
45.6758160083
 30
0.1
 41
1.5
 42
1.5
 50
228.7007839697
  0
LINE
  5
15E
330
15A
100
AcDbEntity
  8
OUTLINE_0_18
 62
     7
 48
0.5
100
AcDbLine
 10
64.0077095748
 20
45.6758160083
 30
0.0
 11
66.0081700029
 21
47.9529551677
 31
0.0
  0
LINE
  5
15F
330
15A
100
AcDbEntity
  8
OUTLINE_0_18
 62
     7
 48
0.5
100
AcDbLine
 10
66.0081700029
 20
47.9529551677
 30
0.0
 11
74.7922354981
 21
47.9529551677
 31
0.0
  0
MTEXT
  5
160
330
15A
100
AcDbEntity
  8
OUTLINE_0_18
 62
     7
 48
0.5
100
AcDbMText
 10
66.9269200029
 20
49.6582844524
 30
0.0
 40
1.3229166667
 41
0.0
 71
     1
 72
     1
  1
R
  7
SLDTEXTSTYLE0
 73
     1
 44
1.0
  0
MTEXT
  5
161
330
15A
100
AcDbEntity
  8
OUTLINE_0_18
 62
     7
 48
0.5
100
AcDbMText
 10
68.1815525907
 20
49.6582844524
 30
0.0
 40
1.3229166667
 41
0.0
 71
     1
 72
     1
  1
0.3
  7
SLDTEXTSTYLE0
 73
     1
 44
1.0
  0
MTEXT
  5
162
330
15A
100
AcDbEntity
  8
OUTLINE_0_18
 62
     7
 48
0.5
100
AcDbMText
 10
71.0728540085
 20
49.6582844524
 30
0.0
 40
1.3229166667
 41
0.0
 71
     1
 72
     1
  1
Typ
  7
SLDTEXTSTYLE0
 73
     1
 44
1.0
  0
ENDBLK
  5
15C
330
15A
100
AcDbEntity
  8
0
100
AcDbBlockEnd
  0
BLOCK
  5
166
330
165
100
AcDbEntity
  8
0
100
AcDbBlockBegin
  2
_D_5
 70
     0
 10
0.0
 20
0.0
 30
0.0
  3
_D_5
  1
_D_5
  0
INSERT
  5
168
330
165
100
AcDbEntity
  8
OUTLINE_0_18
 48
0.5
100
AcDbBlockReference
  2
_OPEN30
 10
72.4057069914
 20
66.1011979576
 30
0.1
 41
1.5
 42
1.5
 50
270.0
  0
INSERT
  5
169
330
165
100
AcDbEntity
  8
OUTLINE_0_18
 48
0.5
100
AcDbBlockReference
  2
_OPEN30
 10
72.4057069914
 20
82.6011979576
 30
0.1
 41
1.5
 42
1.5
 50
90.0
  0
LINE
  5
16A
330
165
100
AcDbEntity
  8
OUTLINE_0_18
 48
0.5
100
AcDbLine
 10
72.4057069914
 20
66.1011979576
 30
0.0
 11
72.4057069914
 21
82.6011979576
 31
0.0
  0
MTEXT
  5
16B
330
165
100
AcDbEntity
  8
OUTLINE_0_18
 48
0.5
100
AcDbMText
 10
70.7003777066
 20
72.6363058542
 30
0.0
 40
1.3229166667
 41
0.0
 71
     1
 72
     1
  1
16.5
  7
SLDTEXTSTYLE0
 11
6.123233995736766E-17
 21
1.0
 31
0.0
 73
     1
 44
1.0
  0
ENDBLK
  5
167
330
165
100
AcDbEntity
  8
0
100
AcDbBlockEnd
  0
ENDSEC
  0
SECTION
  2
ENTITIES
  0
LINE
  5
7B
330
1F
100
AcDbEntity
  8
0
  6
Continuous
 62
     7
 48
0.5
370
    60
100
AcDbLine
 10
10.0518411506
 20
4.9466154755
 30
0.0
 11
145.5518411506
 21
4.9466154755
 31
0.0
  0
LINE
  5
7C
330
1F
100
AcDbEntity
  8
0
  6
Continuous
 62
     7
 48
0.5
370
    60
100
AcDbLine
 10
145.5518411506
 20
4.9466154755
 30
0.0
 11
145.5518411506
 21
101.9466154755
 31
0.0
  0
LINE
  5
7D
330
1F
100
AcDbEntity
  8
0
  6
Continuous
 62
     7
 48
0.5
370
    15
100
AcDbLine
 10
96.0
 20
19.949744537
 30
0.0
 11
145.5
 21
19.949744537
 31
0.0
  0
LINE
  5
7E
330
1F
100
AcDbEntity
  8
0
  6
Continuous
 62
     7
 48
0.5
370
     0
100
AcDbLine
 10
10.0518411506
 20
7.9466154755
 30
0.0
 11
55.5518411506
 21
7.9466154755
 31
0.0
  0
LINE
  5
7F
330
1F
100
AcDbEntity
  8
0
  6
Continuous
 62
     7
 48
0.5
370
     0
100
AcDbLine
 10
10.0518411506
 20
13.9466154755
 30
0.0
 11
55.5518411506
 21
13.9466154755
 31
0.0
  0
LINE
  5
80
330
1F
100
AcDbEntity
  8
0
  6
Continuous
 62
     7
 48
0.5
370
     0
100
AcDbLine
 10
10.0518411506
 20
16.9466154755
 30
0.0
 11
55.5518411506
 21
16.9466154755
 31
0.0
  0
LINE
  5
81
330
1F
100
AcDbEntity
  8
0
  6
Continuous
 62
     7
 48
0.5
370
    15
100
AcDbLine
 10
74.9045977011
 20
4.949744537
 30
0.0
 11
74.9045977011
 21
12.449744537
 31
0.0
  0
LINE
  5
82
330
1F
100
AcDbEntity
  8
0
  6
Continuous
 62
     7
 48
0.5
370
    15
100
AcDbLine
 10
106.0
 20
4.949744537
 30
0.0
 11
106.0
 21
10.949744537
 31
0.0
  0
LINE
  5
83
330
1F
100
AcDbEntity
  8
0
  6
Continuous
 62
     7
 48
0.5
370
    15
100
AcDbLine
 10
96.0
 20
10.949744537
 30
0.0
 11
145.5
 21
10.949744537
 31
0.0
  0
LINE
  5
84
330
1F
100
AcDbEntity
  8
0
  6
Continuous
 62
     7
 48
0.5
370
    15
100
AcDbLine
 10
96.0
 20
28.949744537
 30
0.0
 11
96.0
 21
4.949744537
 31
0.0
  0
LINE
  5
85
330
1F
100
AcDbEntity
  8
0
  6
Continuous
 62
     7
 48
0.5
370
    15
100
AcDbLine
 10
96.0
 20
22.949744537
 30
0.0
 11
10.0518411506
 21
22.949744537
 31
0.0
  0
LINE
  5
86
330
1F
100
AcDbEntity
  8
0
  6
Continuous
 62
     7
 48
0.5
370
    15
100
AcDbLine
 10
55.5
 20
12.449744537
 30
0.0
 11
96.0
 21
12.449744537
 31
0.0
  0
LINE
  5
87
330
1F
100
AcDbEntity
  8
0
  6
Continuous
 62
     7
 48
0.5
370
    60
100
AcDbLine
 10
10.0518411506
 20
101.9466154755
 30
0.0
 11
10.0518411506
 21
4.9466154755
 31
0.0
  0
LINE
  5
88
330
1F
100
AcDbEntity
  8
0
  6
Continuous
 62
     7
 48
0.5
370
    60
100
AcDbLine
 10
145.5518411506
 20
101.9466154755
 30
0.0
 11
10.0518411506
 21
101.9466154755
 31
0.0
  0
LINE
  5
89
330
1F
100
AcDbEntity
  8
0
  6
Continuous
 62
     7
 48
0.5
370
     0
100
AcDbLine
 10
10.0518411506
 20
10.9466154755
 30
0.0
 11
55.5518411506
 21
10.9466154755
 31
0.0
  0
LINE
  5
8A
330
1F
100
AcDbEntity
  8
0
  6
Continuous
 62
     7
 48
0.5
370
     0
100
AcDbLine
 10
28.5518411506
 20
4.9466154755
 30
0.0
 11
28.5518411506
 21
22.949744537
 31
0.0
  0
LINE
  5
8B
330
1F
100
AcDbEntity
  8
0
  6
Continuous
 62
     7
 48
0.5
370
     0
100
AcDbLine
 10
37.5
 20
22.949744537
 30
0.0
 11
37.5
 21
4.949744537
 31
0.0
  0
LINE
  5
8C
330
1F
100
AcDbEntity
  8
0
  6
Continuous
 62
     7
 48
0.5
370
    15
100
AcDbLine
 10
96.0
 20
28.949744537
 30
0.0
 11
145.5
 21
28.949744537
 31
0.0
  0
LINE
  5
8D
330
1F
100
AcDbEntity
  8
0
  6
Continuous
 62
     7
 48
0.5
370
     0
100
AcDbLine
 10
96.0
 20
25.949744537
 30
0.0
 11
145.5
 21
25.949744537
 31
0.0
  0
LINE
  5
8E
330
1F
100
AcDbEntity
  8
0
  6
Continuous
 62
     7
 48
0.5
370
     0
100
AcDbLine
 10
96.0
 20
22.949744537
 30
0.0
 11
145.5
 21
22.949744537
 31
0.0
  0
LINE
  5
8F
330
1F
100
AcDbEntity
  8
0
  6
Continuous
 62
     7
 48
0.5
370
     0
100
AcDbLine
 10
103.5
 20
19.949744537
 30
0.0
 11
103.5
 21
28.949744537
 31
0.0
  0
LINE
  5
90
330
1F
100
AcDbEntity
  8
0
  6
Continuous
 62
     7
 48
0.5
370
     0
100
AcDbLine
 10
113.5
 20
19.949744537
 30
0.0
 11
113.5
 21
28.949744537
 31
0.0
  0
LINE
  5
91
330
1F
100
AcDbEntity
  8
0
  6
Continuous
 62
     7
 48
0.5
370
     0
100
AcDbLine
 10
141.0
 20
19.949744537
 30
0.0
 11
141.0
 21
28.949744537
 31
0.0
  0
LINE
  5
92
330
1F
100
AcDbEntity
  8
0
  6
Continuous
 62
     7
 48
0.5
370
    15
100
AcDbLine
 10
55.5518411506
 20
22.949744537
 30
0.0
 11
55.5518411506
 21
4.9466154755
 31
0.0
  0
LINE
  5
93
330
1F
100
AcDbEntity
  8
0
  6
Continuous
 62
     7
 48
0.5
370
     0
100
AcDbLine
 10
71.0399214765
 20
8.1777779761
 30
0.0
 11
71.0399214765
 21
6.2480832634
 31
0.0
  0
LINE
  5
94
330
1F
100
AcDbEntity
  8
0
  6
Continuous
 62
     7
 48
0.5
370
     0
100
AcDbLine
 10
71.8337083579
 20
8.7713885763
 30
0.0
 11
73.7502342181
 21
8.7713885763
 31
0.0
  0
LINE
  5
95
330
1F
100
AcDbEntity
  8
0
  6
Continuous
 62
     7
 48
0.5
370
     0
100
AcDbLine
 10
70.7457496639
 20
8.7713885763
 30
0.0
 11
71.2947787107
 21
8.7713885763
 31
0.0
  0
LINE
  5
96
330
1F
100
AcDbEntity
  8
0
  6
Continuous
 62
     7
 48
0.5
370
     0
100
AcDbLine
 10
65.9012208591
 20
8.7713885763
 30
0.0
 11
70.2388696639
 21
8.7713885763
 31
0.0
  0
LINE
  5
97
330
1F
100
AcDbEntity
  8
0
  6
Continuous
 62
     7
 48
0.5
370
     0
100
AcDbLine
 10
64.8874608591
 20
8.7713885763
 30
0.0
 11
65.3943408591
 21
8.7713885763
 31
0.0
  0
LINE
  5
98
330
1F
100
AcDbEntity
  8
0
  6
Continuous
 62
     7
 48
0.5
370
     0
100
AcDbLine
 10
71.0399214765
 20
11.1697667071
 30
0.0
 11
71.0399214765
 21
9.3113886133
 31
0.0
  0
LINE
  5
99
330
1F
100
AcDbEntity
  8
0
  6
Continuous
 62
     7
 48
0.5
370
     0
100
AcDbLine
 10
63.1760243915
 20
10.8177453865
 30
0.0
 11
66.7965018249
 21
9.8732730126
 31
0.0
  0
LINE
  5
9A
330
1F
100
AcDbEntity
  8
0
  6
Continuous
 62
     7
 48
0.5
370
     0
100
AcDbLine
 10
63.1760243915
 20
6.8037377972
 30
0.0
 11
66.7965018249
 21
7.5907981088
 31
0.0
  0
LINE
  5
9B
330
1F
100
AcDbEntity
  8
0
  6
Continuous
 62
     7
 48
0.5
370
     0
100
AcDbLine
 10
66.7965018249
 20
7.5907981088
 30
0.0
 11
66.7965018249
 21
9.8732730126
 31
0.0
  0
LINE
  5
9C
330
1F
100
AcDbEntity
  8
0
  6
Continuous
 62
     7
 48
0.5
370
     0
100
AcDbLine
 10
63.1760243915
 20
6.8037377972
 30
0.0
 11
63.1760243915
 21
10.8177453865
 31
0.0
  0
LINE
  5
9D
330
1F
100
AcDbEntity
  8
0
  6
Continuous
 62
     7
 48
0.5
370
     0
100
AcDbLine
 10
62.2084498576
 20
8.7713885763
 30
0.0
 11
64.3805808591
 21
8.7713885763
 31
0.0
  0
LINE
  5
9E
330
1F
100
AcDbEntity
  8
0
  6
Continuous
 62
     7
 48
0.5
370
     0
100
AcDbLine
 10
71.0399214765
 20
8.9025454327
 30
0.0
 11
71.0399214765
 21
8.5680373758
 31
0.0
  0
LINE
  5
9F
330
1F
100
AcDbEntity
  8
0
  6
Continuous
 62
     7
 48
0.5
370
     0
100
AcDbLine
 10
46.5
 20
22.949744537
 30
0.0
 11
46.5
 21
4.949744537
 31
0.0
  0
LINE
  5
A0
330
1F
100
AcDbEntity
  8
0
  6
Continuous
 62
     7
 48
0.5
370
     0
100
AcDbLine
 10
55.5518411506
 20
19.9466154755
 30
0.0
 11
10.0518411506
 21
19.9466154755
 31
0.0
  0
LINE
  5
A1
330
1F
100
AcDbEntity
  8
0
  6
Continuous
 62
     7
 48
0.5
370
     0
100
AcDbLine
 10
19.3018411506
 20
22.949744537
 30
0.0
 11
19.3018411506
 21
4.9466154755
 31
0.0
  0
CIRCLE
  5
A2
330
1F
100
AcDbEntity
  8
0
  6
Continuous
 62
     7
 48
0.5
370
     0
100
AcDbCircle
 10
71.0399214765
 20
8.6926825451
 30
0.0
 40
1.140479999999684
  0
CIRCLE
  5
A3
330
1F
100
AcDbEntity
  8
0
  6
Continuous
 62
     7
 48
0.5
370
     0
100
AcDbCircle
 10
71.0399214765
 20
8.6926825451
 30
0.0
 40
2.02752000000001
  0
INSERT
  5
AE
330
1F
100
AcDbEntity
  8
OUTLINE_0_18
 62
     7
 48
0.5
100
AcDbBlockReference
  2
SW_NOTE_0
 10
11.2298634968
 20
32.4701012575
 30
0.0
  0
INSERT
  5
B9
330
1F
100
AcDbEntity
  8
OUTLINE_0_18
 62
     7
 48
0.5
100
AcDbBlockReference
  2
SW_NOTE_1
 10
51.5652764761
 20
90.9362516844
 30
0.0
  0
MTEXT
  5
BA
330
1F
100
AcDbEntity
  8
OUTLINE_0_18
 48
0.5
100
AcDbMText
 10
72.2560626842
 20
92.9264097715
 30
0.0
 40
1.0583333333
 41
0.0
 71
     1
 72
     1
  1
+
  7
SLDTEXTSTYLE0
 73
     1
 44
1.0
  0
MTEXT
  5
BB
330
1F
100
AcDbEntity
  8
OUTLINE_0_18
 48
0.5
100
AcDbMText
 10
86.6925251924
 20
64.7684166206
 30
0.0
 40
1.0583333333
 41
0.0
 71
     1
 72
     1
  1
+
  7
SLDTEXTSTYLE0
 73
     1
 44
1.0
  0
INSERT
  5
C6
330
1F
100
AcDbEntity
  8
OUTLINE_0_18
 48
0.5
100
AcDbBlockReference
  2
SW_NOTE_2
 10
92.4196512724
 20
63.3291879654
 30
0.0
  0
INSERT
  5
D1
330
1F
100
AcDbEntity
  8
OUTLINE_0_18
 48
0.5
100
AcDbBlockReference
  2
SW_NOTE_3
 10
74.0481149859
 20
94.4946879177
 30
0.0
  0
INSERT
  5
DC
330
1F
100
AcDbEntity
  8
OUTLINE_0_18
 48
0.5
100
AcDbBlockReference
  2
SW_NOTE_4
 10
71.9032849107
 20
63.3291879654
 30
0.0
  0
MTEXT
  5
DE
330
1F
100
AcDbEntity
  8
0
  6
Continuous
 62
     7
 48
0.5
370
     0
100
AcDbMText
 10
97.1336765338
 20
21.9215711036
 30
0.0
 40
1.0583333333
 41
0.0
 71
     1
 72
     1
  1
ITEM No
  7
SLDTEXTSTYLE1
 73
     1
 44
1.0
  0
MTEXT
  5
DF
330
1F
100
AcDbEntity
  8
0
  6
Continuous
 62
     7
 48
0.5
370
     0
100
AcDbMText
 10
123.0363367353
 20
21.9259557265
 30
0.0
 40
1.0583333333
 41
0.0
 71
     1
 72
     1
  1
DESCRIPTION
  7
SLDTEXTSTYLE1
 73
     1
 44
1.0
  0
MTEXT
  5
E0
330
1F
100
AcDbEntity
  8
0
  6
Continuous
 62
     7
 48
0.5
370
     0
100
AcDbMText
 10
106.5978596908
 20
10.0579971538
 30
0.0
 40
1.28125
 41
0.0
 71
     1
 72
     1
  1
PART No.
  7
SLDTEXTSTYLE1
 73
     1
 44
1.0
  0
MTEXT
  5
E1
330
1F
100
AcDbEntity
  8
0
  6
Continuous
 62
     7
 48
0.5
370
     0
100
AcDbMText
 10
96.9720098091
 20
10.1778676203
 30
0.0
 40
1.28125
 41
0.0
 71
     1
 72
     1
  1
SCALE
  7
SLDTEXTSTYLE1
 73
     1
 44
1.0
  0
MTEXT
  5
E2
330
1F
100
AcDbEntity
  8
0
  6
Continuous
 62
     7
 48
0.5
370
     0
100
AcDbMText
 10
97.0496475451
 20
19.0285695147
 30
0.0
 40
1.28125
 41
0.0
 71
     1
 72
     1
  1
DESCRIPTION
  7
SLDTEXTSTYLE1
 73
     1
 44
1.0
  0
MTEXT
  5
E3
330
1F
100
AcDbEntity
  8
0
  6
Continuous
 62
     7
 48
0.5
370
     0
100
AcDbMText
 10
48.0735261459
 20
6.8394449759
 30
0.0
 40
1.28125
 41
0.0
 71
     1
 72
     1
  1
ISSUE
  7
SLDTEXTSTYLE1
 73
     1
 44
1.0
  0
MTEXT
  5
E4
330
1F
100
AcDbEntity
  8
0
  6
Continuous
 62
     7
 48
0.5
370
     0
100
AcDbMText
 10
48.0735261459
 20
9.8673166766
 30
0.0
 40
1.28125
 41
0.0
 71
     1
 72
     1
  1
DATE
  7
SLDTEXTSTYLE1
 73
     1
 44
1.0
  0
MTEXT
  5
E5
330
1F
100
AcDbEntity
  8
0
  6
Continuous
 62
     7
 48
0.5
370
     0
100
AcDbMText
 10
48.0735261459
 20
12.8951883773
 30
0.0
 40
1.28125
 41
0.0
 71
     1
 72
     1
  1
DRAWN
  7
SLDTEXTSTYLE1
 73
     1
 44
1.0
  0
MTEXT
  5
E6
330
1F
100
AcDbEntity
  8
0
  6
Continuous
 62
     7
 48
0.5
370
     0
100
AcDbMText
 10
48.0735261459
 20
16.0006978139
 30
0.0
 40
1.28125
 41
0.0
 71
     1
 72
     1
  1
CHK'D
  7
SLDTEXTSTYLE1
 73
     1
 44
1.0
  0
MTEXT
  5
E7
330
1F
100
AcDbEntity
  8
0
  6
Continuous
 62
     7
 48
0.5
370
     0
100
AcDbMText
 10
48.0735261459
 20
18.9509317788
 30
0.0
 40
1.28125
 41
0.0
 71
     1
 72
     1
  1
APPV'D
  7
SLDTEXTSTYLE1
 73
     1
 44
1.0
  0
MTEXT
  5
E8
330
1F
100
AcDbEntity
  8
0
  6
Continuous
 62
     7
 48
0.5
370
     0
100
AcDbMText
 10
41.2549030607
 20
7.3577310969
 30
0.0
 40
1.79375
 41
0.0
 71
     1
 72
     1
  1
B
  7
SLDTEXTSTYLE1
 73
     1
 44
1.0
  0
MTEXT
  5
E9
330
1F
100
AcDbEntity
  8
0
  6
Continuous
 62
     7
 48
0.5
370
     0
100
AcDbMText
 10
76.1231991699
 20
11.4368576754
 30
0.0
 40
1.0583333333
 41
0.0
 71
     1
 72
     1
  1
THIS DRAWING IS SUBJECT
  7
SLDTEXTSTYLE1
 73
     1
 44
1.0
  0
MTEXT
  5
EA
330
1F
100
AcDbEntity
  8
0
  6
Continuous
 62
     7
 48
0.5
370
     0
100
AcDbMText
 10
76.1231991699
 20
9.896857642
 30
0.0
 40
1.0583333333
 41
0.0
 71
     1
 72
     1
  1
TO COPYRIGHT AND SHALL
  7
SLDTEXTSTYLE1
 73
     1
 44
1.0
  0
MTEXT
  5
EB
330
1F
100
AcDbEntity
  8
0
  6
Continuous
 62
     7
 48
0.5
370
     0
100
AcDbMText
 10
76.1231991699
 20
8.3568576086
 30
0.0
 40
1.0583333333
 41
0.0
 71
     1
 72
     1
  1
NOT BE COPIED WITHOUT
  7
SLDTEXTSTYLE1
 73
     1
 44
1.0
  0
MTEXT
  5
EC
330
1F
100
AcDbEntity
  8
0
  6
Continuous
 62
     7
 48
0.5
370
     0
100
AcDbMText
 10
76.1231991699
 20
6.8168575752
 30
0.0
 40
1.0583333333
 41
0.0
 71
     1
 72
     1
  1
CONSENT OF STYROMAX
  7
SLDTEXTSTYLE1
 73
     1
 44
1.0
  0
MTEXT
  5
ED
330
1F
100
AcDbEntity
  8
0
  6
Continuous
 62
     7
 48
0.5
370
     0
100
AcDbMText
 10
47.0380348069
 20
22.5980917463
 30
0.0
 40
0.9260416667
 41
0.0
 71
     1
 72
     1
  1
DIMENSIONS
  7
SLDTEXTSTYLE1
 73
     1
 44
1.0
  0
MTEXT
  5
EF
330
1F
100
AcDbEntity
  8
0
  6
Continuous
 62
     7
 48
0.5
370
     0
100
AcDbMText
 10
48.3527196885
 20
21.2219274776
 30
0.0
 40
0.9260416667
 41
0.0
 71
     1
 72
     1
  1
IN  mm.
  7
SLDTEXTSTYLE2
 73
     1
 44
1.0
  0
MTEXT
  5
F0
330
1F
100
AcDbEntity
  8
0
  6
Continuous
 62
     7
 48
0.5
370
     0
100
AcDbMText
 10
141.6419914564
 20
21.9966251588
 30
0.0
 40
1.0583333333
 41
0.0
 71
     1
 72
     1
  1
QTY.
  7
SLDTEXTSTYLE1
 73
     1
 44
1.0
  0
MTEXT
  5
F1
330
1F
100
AcDbEntity
  8
0
  6
Continuous
 62
     7
 48
0.5
370
     0
100
AcDbMText
 10
105.7682402451
 20
21.8509016714
 30
0.0
 40
1.0583333333
 41
0.0
 71
     1
 72
     1
  1
PART No
  7
SLDTEXTSTYLE1
 73
     1
 44
1.0
  0
MTEXT
  5
F2
330
1F
100
AcDbEntity
  8
0
  6
Continuous
 62
     7
 48
0.5
370
     0
100
AcDbMText
 10
56.7942892475
 20
9.9213477498
 30
0.0
 40
1.153125
 41
0.0
 71
     1
 72
     1
  1
THIRD
  7
SLDTEXTSTYLE1
 11
0.9999965730557124
 21
0.002617990991439207
 31
0.0
 73
     1
 44
1.0
  0
MTEXT
  5
F3
330
1F
100
AcDbEntity
  8
0
  6
Continuous
 62
     7
 48
0.5
370
     0
100
AcDbMText
 10
56.6342708075
 20
8.0083554953
 30
0.0
 40
1.153125
 41
0.0
 71
     1
 72
     1
  1
ANGLE
  7
SLDTEXTSTYLE1
 11
0.9999965730557124
 21
0.002617990991439207
 31
0.0
 73
     1
 44
1.0
  0
MTEXT
  5
F4
330
1F
100
AcDbEntity
  8
0
  6
Continuous
 62
     7
 48
0.5
370
     0
100
AcDbMText
 10
32.2282116167
 20
7.3577310969
 30
0.0
 40
1.79375
 41
0.0
 71
     1
 72
     1
  1
C
  7
SLDTEXTSTYLE1
 73
     1
 44
1.0
  0
MTEXT
  5
F5
330
1F
100
AcDbEntity
  8
0
  6
Continuous
 62
     7
 48
0.5
370
     0
100
AcDbMText
 10
22.8831555401
 20
7.3577310969
 30
0.0
 40
1.79375
 41
0.0
 71
     1
 72
     1
  1
D
  7
SLDTEXTSTYLE1
 73
     1
 44
1.0
  0
MTEXT
  5
F6
330
1F
100
AcDbEntity
  8
OUTLINE_0_18
 48
0.5
100
AcDbMText
 10
98.0425179359
 20
8.2615859244
 30
0.0
 40
2.1166666667
 41
0.0
 71
     1
 72
     1
  1
2:1
  7
SLDTEXTSTYLE0
 73
     1
 44
1.0
  0
MTEXT
  5
F7
330
1F
100
AcDbEntity
  8
OUTLINE_0_18
 48
0.5
100
AcDbMText
 10
123.3348928027
 20
16.6703076741
 30
0.0
 40
2.38125
 41
0.0
 71
     2
 72
     1
  1
25 x 45 PULTRUSION BEAM
  7
SLDTEXTSTYLE0
 73
     1
 44
1.0
  0
MTEXT
  5
F8
330
1F
100
AcDbEntity
  8
OUTLINE_0_18
 48
0.5
100
AcDbMText
 10
31.5654526439
 20
13.2526755202
 30
0.0
 40
1.3229166667
 41
0.0
 71
     1
 72
     1
  1
J.M.
  7
SLDTEXTSTYLE0
 73
     1
 44
1.0
  0
MTEXT
  5
F9
330
1F
100
AcDbEntity
  8
OUTLINE_0_18
 48
0.5
100
AcDbMText
 10
38.520467746
 20
9.9021042017
 30
0.0
 40
1.3229166667
 41
0.0
 71
     1
 72
     1
  1
07-07-11
  7
SLDTEXTSTYLE0
 73
     1
 44
1.0
  0
MTEXT
  5
FA
330
1F
100
AcDbEntity
  8
OUTLINE_0_18
 48
0.5
100
AcDbMText
 10
22.0280847619
 20
13.2424093486
 30
0.0
 40
1.3229166667
 41
0.0
 71
     1
 72
     1
  1
J.M.
  7
SLDTEXTSTYLE0
 73
     1
 44
1.0
  0
MTEXT
  5
FB
330
1F
100
AcDbEntity
  8
OUTLINE_0_18
 48
0.5
100
AcDbMText
 10
29.7542513089
 20
9.9021042017
 30
0.0
 40
1.3229166667
 41
0.0
 71
     1
 72
     1
  1
08-07-11
  7
SLDTEXTSTYLE0
 73
     1
 44
1.0
  0
MTEXT
  5
FC
330
1F
100
AcDbEntity
  8
OUTLINE_0_18
 48
0.5
100
AcDbMText
 10
13.1983584444
 20
13.2424093486
 30
0.0
 40
1.3229166667
 41
0.0
 71
     1
 72
     1
  1
J.M.
  7
SLDTEXTSTYLE0
 73
     1
 44
1.0
  0
MTEXT
  5
FD
330
1F
100
AcDbEntity
  8
OUTLINE_0_18
 48
0.5
100
AcDbMText
 10
20.433339063
 20
9.9021042017
 30
0.0
 40
1.3229166667
 41
0.0
 71
     1
 72
     1
  1
24-10-11
  7
SLDTEXTSTYLE0
 73
     1
 44
1.0
  0
MTEXT
  5
FE
330
1F
100
AcDbEntity
  8
OUTLINE_0_18
 48
0.5
100
AcDbMText
 10
40.564679448
 20
13.2147401126
 30
0.0
 40
1.3229166667
 41
0.0
 71
     1
 72
     1
  1
J.M.
  7
SLDTEXTSTYLE0
 73
     1
 44
1.0
  0
MTEXT
  5
FF
330
1F
100
AcDbEntity
  8
OUTLINE_0_18
 48
0.5
100
AcDbMText
 10
13.938314041
 20
7.3577310969
 30
0.0
 40
1.79375
 41
0.0
 71
     1
 72
     1
  1
E
  7
SLDTEXTSTYLE1
 73
     1
 44
1.0
  0
MTEXT
  5
100
330
1F
100
AcDbEntity
  8
OUTLINE_0_18
 48
0.5
100
AcDbMText
 10
11.4411908976
 20
9.9021042017
 30
0.0
 40
1.3229166667
 41
0.0
 71
     1
 72
     1
  1
02-11-13
  7
SLDTEXTSTYLE0
 73
     1
 44
1.0
  0
INSERT
  5
107
330
1F
100
AcDbEntity
  8
OUTLINE_0_18
 48
0.5
100
AcDbBlockReference
  2
SW_NOTE_5
 10
56.0061030449
 20
12.9058158724
 30
0.0
  0
LINE
  5
108
330
1F
100
AcDbEntity
  8
0
  6
Continuous
 62
     7
 48
0.5
370
    15
100
AcDbLine
 10
64.2057069511
 20
45.6011977192
 30
0.0
 11
80.6057070316
 21
45.6011977192
 31
0.0
  0
ARC
  5
109
330
1F
100
AcDbEntity
  8
0
  6
Continuous
 62
     7
 48
0.25
370
    15
100
AcDbCircle
 10
80.6057069914
 20
45.9011979576
 30
0.0
 40
0.3000000000000043
100
AcDbArc
 50
270.0
 51
0.0
  0
LINE
  5
10A
330
1F
100
AcDbEntity
  8
0
  6
Continuous
 62
     7
 48
0.5
370
    15
100
AcDbLine
 10
80.9057074533
 20
45.9011972095
 30
0.0
 11
80.9057074533
 21
61.8011979065
 31
0.0
  0
ARC
  5
10B
330
1F
100
AcDbEntity
  8
0
  6
Continuous
 62
     7
 48
0.25
370
    15
100
AcDbCircle
 10
80.6057069914
 20
61.8011979576
 30
0.0
 40
0.2999999999999901
100
AcDbArc
 50
360.0
 51
90.0
  0
LINE
  5
10C
330
1F
100
AcDbEntity
  8
0
  6
Continuous
 62
     7
 48
0.5
370
    15
100
AcDbLine
 10
80.6057070316
 20
62.1011978626
 30
0.0
 11
64.2057069511
 21
62.1011978626
 31
0.0
  0
ARC
  5
10D
330
1F
100
AcDbEntity
  8
0
  6
Continuous
 62
     7
 48
0.25
370
    15
100
AcDbCircle
 10
64.2057069914
 20
61.8011979576
 30
0.0
 40
0.2999999999999972
100
AcDbArc
 50
90.0
 51
180.0
  0
LINE
  5
10E
330
1F
100
AcDbEntity
  8
0
  6
Continuous
 62
     7
 48
0.5
370
    15
100
AcDbLine
 10
63.9057065294
 20
61.8011979065
 30
0.0
 11
63.9057065294
 21
45.9011972095
 31
0.0
  0
ARC
  5
10F
330
1F
100
AcDbEntity
  8
0
  6
Continuous
 62
     7
 48
0.25
370
    15
100
AcDbCircle
 10
64.2057069914
 20
45.9011979576
 30
0.0
 40
0.3000000000000043
100
AcDbArc
 50
180.0
 51
270.0
  0
LINE
  5
110
330
1F
100
AcDbEntity
  8
0
  6
Continuous
 62
     7
 48
0.5
370
    15
100
AcDbLine
 10
84.9057071776
 20
42.6011972274
 30
0.0
 11
84.9057071776
 21
85.6011986877
 31
0.0
  0
ARC
  5
111
330
1F
100
AcDbEntity
  8
0
  6
Continuous
 62
     7
 48
0.25
370
    15
100
AcDbCircle
 10
83.9057069914
 20
42.6011979576
 30
0.0
 40
1.0
100
AcDbArc
 50
270.0
 51
0.0
  0
LINE
  5
112
330
1F
100
AcDbEntity
  8
0
  6
Continuous
 62
     7
 48
0.5
370
    15
100
AcDbLine
 10
60.905706969
 20
41.6011970635
 30
0.0
 11
83.9057070137
 21
41.6011970635
 31
0.0
  0
ARC
  5
113
330
1F
100
AcDbEntity
  8
0
  6
Continuous
 62
     7
 48
0.25
370
    15
100
AcDbCircle
 10
60.9057069914
 20
42.6011979576
 30
0.0
 40
1.0
100
AcDbArc
 50
180.0
 51
270.0
  0
LINE
  5
114
330
1F
100
AcDbEntity
  8
0
  6
Continuous
 62
     7
 48
0.5
370
    15
100
AcDbLine
 10
59.9057068051
 20
85.6011986877
 30
0.0
 11
59.9057068051
 21
42.6011972274
 31
0.0
  0
ARC
  5
115
330
1F
100
AcDbEntity
  8
0
  6
Continuous
 62
     7
 48
0.25
370
    15
100
AcDbCircle
 10
60.9057069914
 20
85.6011979576
 30
0.0
 40
1.0
100
AcDbArc
 50
90.0
 51
180.0
  0
LINE
  5
116
330
1F
100
AcDbEntity
  8
0
  6
Continuous
 62
     7
 48
0.5
370
    15
100
AcDbLine
 10
83.9057070137
 20
86.6011988517
 30
0.0
 11
60.905706969
 21
86.6011988517
 31
0.0
  0
ARC
  5
117
330
1F
100
AcDbEntity
  8
0
  6
Continuous
 62
     7
 48
0.25
370
    15
100
AcDbCircle
 10
83.9057069914
 20
85.6011979576
 30
0.0
 40
1.0
100
AcDbArc
 50
0.0
 51
90.0
  0
LINE
  5
118
330
1F
100
AcDbEntity
  8
0
  6
Continuous
 62
     7
 48
0.5
370
    15
100
AcDbLine
 10
80.6057070316
 20
82.601198196
 30
0.0
 11
64.2057069511
 21
82.601198196
 31
0.0
  0
ARC
  5
119
330
1F
100
AcDbEntity
  8
0
  6
Continuous
 62
     7
 48
0.25
370
    15
100
AcDbCircle
 10
64.2057069914
 20
82.3011979576
 30
0.0
 40
0.3000000000000114
100
AcDbArc
 50
90.0
 51
180.0
  0
LINE
  5
11A
330
1F
100
AcDbEntity
  8
0
  6
Continuous
 62
     7
 48
0.5
370
    15
100
AcDbLine
 10
63.9057065294
 20
82.3011987056
 30
0.0
 11
63.9057065294
 21
66.4011980086
 31
0.0
  0
ARC
  5
11B
330
1F
100
AcDbEntity
  8
0
  6
Continuous
 62
     7
 48
0.25
370
    15
100
AcDbCircle
 10
64.2057069914
 20
66.4011979576
 30
0.0
 40
0.3000000000000114
100
AcDbArc
 50
180.0
 51
270.0
  0
LINE
  5
11C
330
1F
100
AcDbEntity
  8
0
  6
Continuous
 62
     7
 48
0.5
370
    15
100
AcDbLine
 10
64.2057069511
 20
66.1011980526
 30
0.0
 11
80.6057070316
 21
66.1011980526
 31
0.0
  0
ARC
  5
11D
330
1F
100
AcDbEntity
  8
0
  6
Continuous
 62
     7
 48
0.25
370
    15
100
AcDbCircle
 10
80.6057069914
 20
66.4011979576
 30
0.0
 40
0.2999999999999972
100
AcDbArc
 50
270.0
 51
0.0
  0
LINE
  5
11E
330
1F
100
AcDbEntity
  8
0
  6
Continuous
 62
     7
 48
0.5
370
    15
100
AcDbLine
 10
80.9057074533
 20
66.4011980086
 30
0.0
 11
80.9057074533
 21
82.3011987056
 31
0.0
  0
ARC
  5
11F
330
1F
100
AcDbEntity
  8
0
  6
Continuous
 62
     7
 48
0.25
370
    15
100
AcDbCircle
 10
80.6057069914
 20
82.3011979576
 30
0.0
 40
0.2999999999999972
100
AcDbArc
 50
0.0
 51
90.0
  0
DIMENSION
  5
120
330
1F
100
AcDbEntity
  8
OUTLINE_0_18
 62
     7
 48
0.5
100
AcDbDimension
  2
_D
 10
84.9057069914
 20
89.4074552826
 30
0.0
 11
72.4057069914
 21
89.4074552826
 31
0.0
 70
   160
  1
<>
 71
     2
 42
-1.0
  3
SLDDIMSTYLE0
100
AcDbAlignedDimension
 13
59.9057069914
 23
85.6011979576
 33
0.0
 14
84.9057069914
 24
85.6011979576
 34
0.0
100
AcDbRotatedDimension
  0
DIMENSION
  5
134
330
1F
100
AcDbEntity
  8
OUTLINE_0_18
 62
     7
 48
0.5
100
AcDbDimension
  2
_D_1
 10
89.9057069914
 20
41.6011979576
 30
0.0
 11
89.9057069914
 21
64.1011979576
 31
0.0
 70
   160
  1
<>
 71
     2
 42
-1.0
  3
SLDDIMSTYLE0
100
AcDbAlignedDimension
 13
83.9057069914
 23
86.6011979576
 33
0.0
 14
83.9057069914
 24
41.6011979576
 34
0.0
 50
90.0
100
AcDbRotatedDimension
  0
DIMENSION
  5
141
330
1F
100
AcDbEntity
  8
OUTLINE_0_18
 62
     7
 48
0.5
100
AcDbDimension
  2
_D_2
 10
60.9057069914
 20
85.6011979576
 30
0.0
 11
52.5890849806
 21
89.3355798478
 31
0.0
 70
   164
  1
<> Typ
 71
     1
 42
-1.0
  3
SLDDIMSTYLE1
100
AcDbRadialDimension
 15
60.0925971352
 25
86.1833082236
 35
0.0
 40
0.0
  0
DIMENSION
  5
14C
330
1F
100
AcDbEntity
  8
OUTLINE_0_18
 62
     7
 48
0.5
100
AcDbDimension
  2
_D_3
 10
59.9057069914
 20
73.8595350753
 30
0.0
 11
54.9057069914
 21
73.8595350753
 31
0.0
 70
   160
  1
<> Typ
 71
     2
 42
-1.0
  3
SLDDIMSTYLE2
100
AcDbAlignedDimension
 13
63.9057069914
 23
66.4011979576
 33
0.0
 14
59.9057069914
 24
85.6011979576
 34
0.0
100
AcDbRotatedDimension
  0
DIMENSION
  5
158
330
1F
100
AcDbEntity
  8
OUTLINE_0_18
 62
     7
 48
0.5
100
AcDbDimension
  2
_D_4
 10
64.2057069914
 20
45.9011979576
 30
0.0
 11
70.4627027505
 21
48.9224439856
 31
0.0
 70
   164
  1
<> Typ
 71
     1
 42
-1.0
  3
SLDDIMSTYLE3
100
AcDbRadialDimension
 15
64.0077095748
 25
45.6758160083
 35
0.0
 40
0.0
  0
DIMENSION
  5
163
330
1F
100
AcDbEntity
  8
OUTLINE_0_18
 48
0.5
100
AcDbDimension
  2
_D_5
 10
72.4057069914
 20
82.6011979576
 30
0.0
 11
72.4057069914
 21
74.3511979576
 31
0.0
 70
   160
  1
<>
 71
     2
 42
-1.0
  3
SLDDIMSTYLE4
100
AcDbAlignedDimension
 13
80.6057069914
 23
66.1011979576
 33
0.0
 14
80.6057069914
 24
82.6011979576
 34
0.0
 50
90.0
100
AcDbRotatedDimension
  0
VIEWPORT
  5
16C
330
1B
100
AcDbEntity
 67
     1
  8
0
100
AcDbViewport
 10
148.5
 20
105.0
 30
0.0
 40
314.226
 41
222.18
 68
     1
 69
     1
 12
148.5
 22
105.0
 13
0.0
 23
0.0
 14
10.0
 24
10.0
 15
10.0
 25
10.0
 16
0.0
 26
0.0
 36
1.0
 17
0.0
 27
0.0
 37
0.0
 42
50.0
 43
0.0
 44
0.0
 45
222.18
 50
0.0
 51
0.0
 72
   100
 90
   557152
  1

281
     0
 71
     1
 74
     0
110
0.0
120
0.0
130
0.0
111
1.0
121
0.0
131
0.0
112
0.0
122
1.0
132
0.0
 79
     0
146
0.0
  0
LINE
  5
16E
330
1B
100
AcDbEntity
 67
     1
  8
0
  6
Continuous
 62
     7
370
    15
100
AcDbLine
 10
133.7557344452
 20
90.6645323617
 30
0.0
 11
150.1557345257
 21
90.6645323617
 31
0.0
  0
ARC
  5
16F
330
1B
100
AcDbEntity
 67
     1
  8
0
  6
Continuous
 62
     7
370
    15
100
AcDbCircle
 10
150.1557344855
 20
90.9645326002
 30
0.0
 40
0.3000000000000114
100
AcDbArc
 50
270.0
 51
0.0
  0
LINE
  5
170
330
1B
100
AcDbEntity
 67
     1
  8
0
  6
Continuous
 62
     7
370
    15
100
AcDbLine
 10
150.4557349474
 20
90.9645318521
 30
0.0
 11
150.4557349474
 21
106.8645325491
 31
0.0
  0
ARC
  5
171
330
1B
100
AcDbEntity
 67
     1
  8
0
  6
Continuous
 62
     7
370
    15
100
AcDbCircle
 10
150.1557344855
 20
106.8645326002
 30
0.0
 40
0.3000000000000114
100
AcDbArc
 50
0.0
 51
90.0
  0
LINE
  5
172
330
1B
100
AcDbEntity
 67
     1
  8
0
  6
Continuous
 62
     7
370
    15
100
AcDbLine
 10
150.1557345257
 20
107.1645325052
 30
0.0
 11
133.7557344452
 21
107.1645325052
 31
0.0
  0
ARC
  5
173
330
1B
100
AcDbEntity
 67
     1
  8
0
  6
Continuous
 62
     7
370
    15
100
AcDbCircle
 10
133.7557344855
 20
106.8645326002
 30
0.0
 40
0.2999999999999972
100
AcDbArc
 50
90.0
 51
180.0
  0
LINE
  5
174
330
1B
100
AcDbEntity
 67
     1
  8
0
  6
Continuous
 62
     7
370
    15
100
AcDbLine
 10
133.4557340235
 20
106.8645325491
 30
0.0
 11
133.4557340235
 21
90.9645318521
 31
0.0
  0
ARC
  5
175
330
1B
100
AcDbEntity
 67
     1
  8
0
  6
Continuous
 62
     7
370
    15
100
AcDbCircle
 10
133.7557344855
 20
90.9645326002
 30
0.0
 40
0.3000000000000114
100
AcDbArc
 50
180.0
 51
270.0
  0
LINE
  5
176
330
1B
100
AcDbEntity
 67
     1
  8
0
  6
Continuous
 62
     7
370
    15
100
AcDbLine
 10
154.4557346717
 20
87.66453187
 30
0.0
 11
154.4557346717
 21
130.6645333303
 31
0.0
  0
ARC
  5
177
330
1B
100
AcDbEntity
 67
     1
  8
0
  6
Continuous
 62
     7
370
    15
100
AcDbCircle
 10
153.4557344855
 20
87.6645326002
 30
0.0
 40
1.0
100
AcDbArc
 50
270.0
 51
0.0
  0
LINE
  5
178
330
1B
100
AcDbEntity
 67
     1
  8
0
  6
Continuous
 62
     7
370
    15
100
AcDbLine
 10
130.4557344631
 20
86.6645317061
 30
0.0
 11
153.4557345078
 21
86.6645317061
 31
0.0
  0
ARC
  5
179
330
1B
100
AcDbEntity
 67
     1
  8
0
  6
Continuous
 62
     7
370
    15
100
AcDbCircle
 10
130.4557344855
 20
87.6645326002
 30
0.0
 40
1.0
100
AcDbArc
 50
180.0
 51
270.0
  0
LINE
  5
17A
330
1B
100
AcDbEntity
 67
     1
  8
0
  6
Continuous
 62
     7
370
    15
100
AcDbLine
 10
129.4557342992
 20
130.6645333303
 30
0.0
 11
129.4557342992
 21
87.66453187
 31
0.0
  0
ARC
  5
17B
330
1B
100
AcDbEntity
 67
     1
  8
0
  6
Continuous
 62
     7
370
    15
100
AcDbCircle
 10
130.4557344855
 20
130.6645326002
 30
0.0
 40
1.0
100
AcDbArc
 50
90.0
 51
180.0
  0
LINE
  5
17C
330
1B
100
AcDbEntity
 67
     1
  8
0
  6
Continuous
 62
     7
370
    15
100
AcDbLine
 10
153.4557345078
 20
131.6645334942
 30
0.0
 11
130.4557344631
 21
131.6645334942
 31
0.0
  0
ARC
  5
17D
330
1B
100
AcDbEntity
 67
     1
  8
0
  6
Continuous
 62
     7
370
    15
100
AcDbCircle
 10
153.4557344855
 20
130.6645326002
 30
0.0
 40
1.0
100
AcDbArc
 50
0.0
 51
90.0
  0
LINE
  5
17E
330
1B
100
AcDbEntity
 67
     1
  8
0
  6
Continuous
 62
     7
370
    15
100
AcDbLine
 10
150.1557345257
 20
127.6645328386
 30
0.0
 11
133.7557344452
 21
127.6645328386
 31
0.0
  0
ARC
  5
17F
330
1B
100
AcDbEntity
 67
     1
  8
0
  6
Continuous
 62
     7
370
    15
100
AcDbCircle
 10
133.7557344855
 20
127.3645326002
 30
0.0
 40
0.3000000000000256
100
AcDbArc
 50
90.0
 51
180.0
  0
LINE
  5
180
330
1B
100
AcDbEntity
 67
     1
  8
0
  6
Continuous
 62
     7
370
    15
100
AcDbLine
 10
133.4557340235
 20
127.3645333482
 30
0.0
 11
133.4557340235
 21
111.4645326512
 31
0.0
  0
ARC
  5
181
330
1B
100
AcDbEntity
 67
     1
  8
0
  6
Continuous
 62
     7
370
    15
100
AcDbCircle
 10
133.7557344855
 20
111.4645326002
 30
0.0
 40
0.2999999999999972
100
AcDbArc
 50
180.0
 51
270.0
  0
LINE
  5
182
330
1B
100
AcDbEntity
 67
     1
  8
0
  6
Continuous
 62
     7
370
    15
100
AcDbLine
 10
133.7557344452
 20
111.1645326952
 30
0.0
 11
150.1557345257
 21
111.1645326952
 31
0.0
  0
ARC
  5
183
330
1B
100
AcDbEntity
 67
     1
  8
0
  6
Continuous
 62
     7
370
    15
100
AcDbCircle
 10
150.1557344855
 20
111.4645326002
 30
0.0
 40
0.3000000000000114
100
AcDbArc
 50
270.0
 51
0.0
  0
LINE
  5
184
330
1B
100
AcDbEntity
 67
     1
  8
0
  6
Continuous
 62
     7
370
    15
100
AcDbLine
 10
150.4557349474
 20
111.4645326512
 30
0.0
 11
150.4557349474
 21
127.3645333482
 31
0.0
  0
ARC
  5
185
330
1B
100
AcDbEntity
 67
     1
  8
0
  6
Continuous
 62
     7
370
    15
100
AcDbCircle
 10
150.1557344855
 20
127.3645326002
 30
0.0
 40
0.3000000000000256
100
AcDbArc
 50
0.0
 51
90.0
  0
ENDSEC
  0
SECTION
  2
OBJECTS
  0
DICTIONARY
  5
C
330
0
100
AcDbDictionary
281
     1
  3
ACAD_GROUP
350
D
  3
ACAD_LAYOUT
350
1A
  3
ACAD_MLINESTYLE
350
17
  3
ACAD_PLOTSETTINGS
350
19
  3
ACAD_PLOTSTYLENAME
350
E
  3
ACAD_SCALELIST
350
47
  0
DICTIONARY
  5
D
102
{ACAD_REACTORS
330
C
102
}
330
C
100
AcDbDictionary
281
     1
  0
DICTIONARY
  5
1A
102
{ACAD_REACTORS
330
C
102
}
330
C
100
AcDbDictionary
281
     1
  3
DXF
350
1E
  3
Model
350
22
  0
DICTIONARY
  5
17
102
{ACAD_REACTORS
330
C
102
}
330
C
100
AcDbDictionary
281
     1
  3
Standard
350
18
  0
DICTIONARY
  5
19
102
{ACAD_REACTORS
330
C
102
}
330
C
100
AcDbDictionary
281
     1
  0
ACDBDICTIONARYWDFLT
  5
E
102
{ACAD_REACTORS
330
C
102
}
330
C
100
AcDbDictionary
281
     1
  3
Normal
350
F
100
AcDbDictionaryWithDefault
340
F
  0
DICTIONARY
  5
47
102
{ACAD_REACTORS
330
C
102
}
330
C
100
AcDbDictionary
281
     1
  3
A0
350
48
  3
A1
350
49
  3
A2
350
4A
  3
A3
350
4B
  3
A4
350
4C
  3
A5
350
4D
  3
A6
350
4E
  3
A7
350
4F
  3
A8
350
50
  3
A9
350
51
  3
B0
350
52
  3
B1
350
53
  3
B2
350
54
  3
B3
350
55
  3
B4
350
56
  3
B5
350
57
  3
B6
350
58
  3
B7
350
59
  3
B8
350
5A
  3
B9
350
5B
  3
C0
350
5C
  3
C1
350
5D
  3
C2
350
5E
  3
C3
350
5F
  3
C4
350
60
  3
C5
350
61
  3
C6
350
62
  3
C7
350
63
  3
C8
350
64
  3
C9
350
65
  3
D0
350
66
  3
D1
350
67
  3
D2
350
68
  0
LAYOUT
  5
1E
102
{ACAD_REACTORS
330
1A
102
}
330
1A
100
AcDbPlotSettings
  1

  2
none_device
  4
ISO_A4_(297.00_x_210.00_MM)
  6

 40
7.5
 41
20.0
 42
7.5
 43
20.0
 44
297.0
 45
210.0
 46
0.0
 47
0.0
 48
0.0
 49
0.0
140
0.0
141
0.0
142
1.0
143
1.0
 70
  4832
 72
     0
 73
     0
 74
     1
  7

 75
     0
147
1.0
148
0.0
149
0.0
100
AcDbLayout
  1
DXF
 70
     1
 71
     1
 10
0.0
 20
0.0
 11
297.0
 21
210.0
 12
0.0
 22
0.0
 32
0.0
 14
0.0
 24
0.0
 34
0.0
 15
297.0
 25
210.0
 35
0.0
146
0.0
 13
0.0
 23
0.0
 33
0.0
 16
1.0
 26
0.0
 36
0.0
 17
0.0
 27
1.0
 37
0.0
 76
     0
330
1B
331
16C
  0
LAYOUT
  5
22
102
{ACAD_REACTORS
330
1A
102
}
330
1A
100
AcDbPlotSettings
  1

  2
none_device
  4
Letter_(8.50_x_11.00_Inches)
  6

 40
6.35
 41
6.35
 42
6.35000508
 43
6.35000508
 44
215.9
 45
279.4
 46
0.0
 47
0.0
 48
0.0
 49
0.0
140
0.0
141
0.0
142
1.0
143
1.0
 70
  1712
 72
     1
 73
     0
 74
     0
  7

 75
     0
147
1.0
148
0.0
149
0.0
100
AcDbLayout
  1
Model
 70
     1
 71
     0
 10
0.0
 20
0.0
 11
148.5
 21
105.0
 12
0.0
 22
0.0
 32
0.0
 14
0.0
 24
0.0
 34
0.0
 15
297.0
 25
210.0
 35
0.0
146
0.0
 13
0.0
 23
0.0
 33
0.0
 16
1.0
 26
0.0
 36
0.0
 17
0.0
 27
1.0
 37
0.0
 76
     0
330
1F
331
29
  0
MLINESTYLE
  5
18
102
{ACAD_REACTORS
330
17
102
}
330
17
100
AcDbMlineStyle
  2
Standard
 70
     0
  3

 62
   256
 51
90.0
 52
90.0
 71
     2
 49
0.5
 62
   256
  6
BYLAYER
 49
-0.5
 62
   256
  6
BYLAYER
  0
ACDBPLACEHOLDER
  5
F
102
{ACAD_REACTORS
330
E
102
}
330
E
  0
SCALE
  5
48
102
{ACAD_REACTORS
330
47
102
}
330
47
100
AcDbScale
 70
     0
300
1:1
140
1.0
141
1.0
290
     1
  0
SCALE
  5
49
102
{ACAD_REACTORS
330
47
102
}
330
47
100
AcDbScale
 70
     0
300
1:2
140
1.0
141
2.0
290
     0
  0
SCALE
  5
4A
102
{ACAD_REACTORS
330
47
102
}
330
47
100
AcDbScale
 70
     0
300
1:4
140
1.0
141
4.0
290
     0
  0
SCALE
  5
4B
102
{ACAD_REACTORS
330
47
102
}
330
47
100
AcDbScale
 70
     0
300
1:5
140
1.0
141
5.0
290
     0
  0
SCALE
  5
4C
102
{ACAD_REACTORS
330
47
102
}
330
47
100
AcDbScale
 70
     0
300
1:8
140
1.0
141
8.0
290
     0
  0
SCALE
  5
4D
102
{ACAD_REACTORS
330
47
102
}
330
47
100
AcDbScale
 70
     0
300
1:10
140
1.0
141
10.0
290
     0
  0
SCALE
  5
4E
102
{ACAD_REACTORS
330
47
102
}
330
47
100
AcDbScale
 70
     0
300
1:16
140
1.0
141
16.0
290
     0
  0
SCALE
  5
4F
102
{ACAD_REACTORS
330
47
102
}
330
47
100
AcDbScale
 70
     0
300
1:20
140
1.0
141
20.0
290
     0
  0
SCALE
  5
50
102
{ACAD_REACTORS
330
47
102
}
330
47
100
AcDbScale
 70
     0
300
1:30
140
1.0
141
30.0
290
     0
  0
SCALE
  5
51
102
{ACAD_REACTORS
330
47
102
}
330
47
100
AcDbScale
 70
     0
300
1:40
140
1.0
141
40.0
290
     0
  0
SCALE
  5
52
102
{ACAD_REACTORS
330
47
102
}
330
47
100
AcDbScale
 70
     0
300
1:50
140
1.0
141
50.0
290
     0
  0
SCALE
  5
53
102
{ACAD_REACTORS
330
47
102
}
330
47
100
AcDbScale
 70
     0
300
1:100
140
1.0
141
100.0
290
     0
  0
SCALE
  5
54
102
{ACAD_REACTORS
330
47
102
}
330
47
100
AcDbScale
 70
     0
300
2:1
140
2.0
141
1.0
290
     0
  0
SCALE
  5
55
102
{ACAD_REACTORS
330
47
102
}
330
47
100
AcDbScale
 70
     0
300
4:1
140
4.0
141
1.0
290
     0
  0
SCALE
  5
56
102
{ACAD_REACTORS
330
47
102
}
330
47
100
AcDbScale
 70
     0
300
8:1
140
8.0
141
1.0
290
     0
  0
SCALE
  5
57
102
{ACAD_REACTORS
330
47
102
}
330
47
100
AcDbScale
 70
     0
300
10:1
140
10.0
141
1.0
290
     0
  0
SCALE
  5
58
102
{ACAD_REACTORS
330
47
102
}
330
47
100
AcDbScale
 70
     0
300
100:1
140
100.0
141
1.0
290
     0
  0
SCALE
  5
59
102
{ACAD_REACTORS
330
47
102
}
330
47
100
AcDbScale
 70
     0
300
1/128" = 1'-0"
140
0.0078125
141
12.0
290
     0
  0
SCALE
  5
5A
102
{ACAD_REACTORS
330
47
102
}
330
47
100
AcDbScale
 70
     0
300
1/64" = 1'-0"
140
0.015625
141
12.0
290
     0
  0
SCALE
  5
5B
102
{ACAD_REACTORS
330
47
102
}
330
47
100
AcDbScale
 70
     0
300
1/32" = 1'-0"
140
0.03125
141
12.0
290
     0
  0
SCALE
  5
5C
102
{ACAD_REACTORS
330
47
102
}
330
47
100
AcDbScale
 70
     0
300
1/16" = 1'-0"
140
0.0625
141
12.0
290
     0
  0
SCALE
  5
5D
102
{ACAD_REACTORS
330
47
102
}
330
47
100
AcDbScale
 70
     0
300
3/32" = 1'-0"
140
0.09375
141
12.0
290
     0
  0
SCALE
  5
5E
102
{ACAD_REACTORS
330
47
102
}
330
47
100
AcDbScale
 70
     0
300
1/8" = 1'-0"
140
0.125
141
12.0
290
     0
  0
SCALE
  5
5F
102
{ACAD_REACTORS
330
47
102
}
330
47
100
AcDbScale
 70
     0
300
3/16" = 1'-0"
140
0.1875
141
12.0
290
     0
  0
SCALE
  5
60
102
{ACAD_REACTORS
330
47
102
}
330
47
100
AcDbScale
 70
     0
300
1/4" = 1'-0"
140
0.25
141
12.0
290
     0
  0
SCALE
  5
61
102
{ACAD_REACTORS
330
47
102
}
330
47
100
AcDbScale
 70
     0
300
3/8" = 1'-0"
140
0.375
141
12.0
290
     0
  0
SCALE
  5
62
102
{ACAD_REACTORS
330
47
102
}
330
47
100
AcDbScale
 70
     0
300
1/2" = 1'-0"
140
0.5
141
12.0
290
     0
  0
SCALE
  5
63
102
{ACAD_REACTORS
330
47
102
}
330
47
100
AcDbScale
 70
     0
300
3/4" = 1'-0"
140
0.75
141
12.0
290
     0
  0
SCALE
  5
64
102
{ACAD_REACTORS
330
47
102
}
330
47
100
AcDbScale
 70
     0
300
1" = 1'-0"
140
1.0
141
12.0
290
     0
  0
SCALE
  5
65
102
{ACAD_REACTORS
330
47
102
}
330
47
100
AcDbScale
 70
     0
300
1-1/2" = 1'-0"
140
1.5
141
12.0
290
     0
  0
SCALE
  5
66
102
{ACAD_REACTORS
330
47
102
}
330
47
100
AcDbScale
 70
     0
300
3" = 1'-0"
140
3.0
141
12.0
290
     0
  0
SCALE
  5
67
102
{ACAD_REACTORS
330
47
102
}
330
47
100
AcDbScale
 70
     0
300
6" = 1'-0"
140
6.0
141
12.0
290
     0
  0
SCALE
  5
68
102
{ACAD_REACTORS
330
47
102
}
330
47
100
AcDbScale
 70
     0
300
1'-0" = 1'-0"
140
12.0
141
12.0
290
     0
  0
ENDSEC
  0
EOF
